大尾巴魚
武林盟主

[2016] [歐美] [劇情] [BT下載][藩籬/籬笆內的風暴][DVDSCR-AVI/2.09G][英語無字]

-->

◎譯  名 藩籬/籬笆內的風暴(台)

◎片  名 Fences

◎年  代 2016

◎國  家 美國

◎類  別 劇情

◎語  言 英語

◎上映日期 2016-12-16(美國)

◎IMDb评分  8.0/10 from 3,359 users

◎IMDb链接  http://www.imdb.com/title/tt2671706/

◎豆瓣评分 7.1/10 from 67 users

◎豆瓣鏈接 https://movie.douban.com/subject/21339682/

◎片  長 138分鍾

◎导  演 丹泽尔·华盛顿 Denzel Washington

◎主  演 丹泽尔·华盛顿 Denzel Washington

      维奥拉·戴维斯 Viola Davis

      斯蒂芬·亨德森 Stephen Henderson

      约翰·艾德坡 Jovan Adepo

      罗素·霍恩斯比 Russell Hornsby

      麦凯尔泰·威廉逊 Mykelti Williamson

      萨尼雅·西德尼 Saniyya Sidney

      克里斯托弗·米勒 Christopher Mele

      莱斯莉·布恩 Lesley Boone

      杰森·斯维斯 Jason Silvis


◎簡  介


  丹澤爾·華盛頓將把自己2010年出演的百老彙舞台劇《藩籬》搬上大銀幕,華盛頓將任該片導演及主演,曾與他一起合作原舞台劇的維奧拉·戴維斯已確定加盟。原劇由奧古斯特·威爾遜創作,曾獲托尼獎及普利策獎。故事圍繞曾是一度有著光明未來的棒球運動員、如今卻成了匹茲堡環衛工的特洛伊展開。


◎獲獎情況


  第74届金球奖  (2017)

  電影类 剧情片最佳男主角(提名) 丹泽尔·华盛顿

  電影类 最佳女配角(提名) 维奥拉·戴维斯


  第23届美国演员工会奖  (2017)

  電影奖 最佳男主角(提名) 丹泽尔·华盛顿

  電影奖 最佳女配角(提名) 维奥拉·戴维斯

  電影奖 最佳群像(提名)


  第22届美国评论家选择電影奖  (2016)

  最佳影片(提名)

  最佳导演(提名) 丹泽尔·华盛顿

  最佳男主角(提名) 丹泽尔·华盛顿

  最佳女配角 维奥拉·戴维斯

  最佳群像表演(提名)

  最佳改编剧本(提名) 奥古斯特·威尔逊


  第41届美国電影学会奖  (2016)

  年度佳片


  第15届华盛顿影评人协会奖  (2016)

  最佳男主角(提名) 丹泽尔·华盛顿

  最佳女配角 维奥拉·戴维斯

  最佳改编剧本(提名) 奥古斯特·威尔逊

  最佳群戲(提名)

Video
ID                                       : 0
Format                                   : MPEG-4 Visual
Format profile                           : Advanced [email protected]
Format settings, BVOP                    : 2
Format settings, QPel                    : No
Format settings, GMC                     : No warppoints
Format settings, Matrix                  : Default (H.263)
Codec ID                                 : DIVX
Codec ID/Info                            : Project Mayo
Codec ID/Hint                            : DivX 4
Duration                                 : 2h 18mn
Bit rate                                 : 1 697 Kbps
Width                                    : 720 pixels
Height                                   : 304 pixels
Display aspect ratio                     : 2.35:1
Frame rate                               : 29.970 (30000/1001) fps
Color space                              : YUV
Chroma subsampling                       : 4:2:0
Bit depth                                : 8 bits
Scan type                                : Progressive
Compression mode                         : Lossy
Bits/(Pixel*Frame)                       : 0.259
Stream size                              : 1.65 GiB (79%)
Writing library                          : XviD 64

Audio
ID                                       : 1
Format                                   : AC-3
Format/Info                              : Audio Coding 3
Mode extension                           : CM (complete main)
Format settings, Endianness              : Big
Codec ID                                 : 2000
Duration                                 : 2h 18mn
Bit rate mode                            : Constant
Bit rate                                 : 448 Kbps
Channel(s)                               : 6 channels
Channel positions                        : Front: L C R, Side: L R, LFE
Sampling rate                            : 48.0 KHz
Frame rate                               : 31.250 fps (1536 spf)
Compression mode                         : Lossy
Stream size                              : 445 MiB (21%)
Alignment                                : Aligned on interleaves
Interleave, duration                     : 32 ms (0.96 video frame)




1 個附件 售價 大小 下載 時間

Fences.2016.DVDSCR.XviD.AC3-UnKnOwN.torrent 0 金币 42.38K 4915 次 2月前

#1樓
发帖時間:2017-01-03 11:33:51   |   回複數:6
ALLEN820213
超凡入聖№
感謝樓主分享!!!
2月前 #2樓
911degrees
一代宗師
非常感謝,謝謝分享
2月前 #3樓
yangbo83222179
一代宗師
謝謝樓主分享,支持一下
2月前 #4樓
blue23
超凡入聖№
感謝樓主分享
2月前 #5樓
SunLin
武林高手
人生如戲,戲如人生。。。。。。
2月前 #6樓
zhao_paul
一代宗師
多謝樓主分享好影片,辛苦了!
13天前 #7樓
遊客組