aoloffline
版主

[更 早] [歐美] [愛情] [WEB-1080P] [BT下載]当老牛碰上嫩草 How.Stella.Got.Her.G.B.1998.1080p.WEBRip.AAC2.0.x264-TrollHD 8.8GB

-->

◎譯  名 當老牛碰上嫩草/史蒂拉老少戀

◎片  名 How Stella Got Her Groove Back

◎年  代 1998

◎國  家 美國

◎類  別 愛情/劇情

◎語  言 英語

◎上映日期 1998-08-14

◎IMDb评分  5.5/10 from 5,078 users

◎IMDb链接  http://www.imdb.com/title/tt0120703/

◎BT之家整理  

◎片  长 124 分钟

◎导  演 凯文·罗德尼·沙利文 Kevin Rodney Sullivan


◎簡  介


  史黛拉(安琪拉·貝瑟飾)正值四十一枝花的年紀,似乎也擁有一切:一個收入豐厚、權力不小的股票經紀人工作,一幢可俯觀看金山美景的華宅,再加上一個聰明可愛的小兒子。


Video
ID                                       : 1
Format                                   : AVC
Format/Info                              : Advanced Video Codec
Format profile                           : [email protected]
Format settings, CABAC                   : Yes
Format settings, ReFrames                : 4 frames
Codec ID                                 : avc1
Codec ID/Info                            : Advanced Video Coding
Duration                                 : 2h 4mn
Bit rate mode                            : Constant
Bit rate                                 : 10 000 Kbps
Width                                    : 1 920 pixels
Height                                   : 1 080 pixels
Display aspect ratio                     : 16:9
Frame rate mode                          : Constant
Frame rate                               : 23.976 (24000/1001) fps
Color space                              : YUV
Chroma subsampling                       : 4:2:0
Bit depth                                : 8 bits
Scan type                                : Progressive
Bits/(Pixel*Frame)                       : 0.201
Stream size                              : 8.70 GiB (99%)
Language                                 : English
Encoded date                             : UTC 2014-01-26 15:22:30
Tagged date                              : UTC 2014-01-26 15:22:30
Color range                              : Limited
Color primaries                          : BT.709
Transfer characteristics                 : BT.709
Matrix coefficients                      : BT.709

Audio
ID                                       : 2
Format                                   : AAC
Format/Info                              : Advanced Audio Codec
Format profile                           : LC
Codec ID                                 : 40
Duration                                 : 2h 4mn
Bit rate mode                            : Variable
Bit rate                                 : 125 Kbps
Maximum bit rate                         : 218 Kbps
Channel(s)                               : 2 channels
Channel positions                        : Front: L R
Sampling rate                            : 48.0 KHz
Frame rate                               : 46.875 fps (1024 spf)
Compression mode                         : Lossy
Stream size                              : 112 MiB (1%)
Language                                 : English
Encoded date                             : UTC 2014-01-26 15:22:30
Tagged date                              : UTC 2014-01-26 15:22:30




1 個附件 售價 大小 下載 時間

How.Stella.Got.Her.Groove.Back.1998.1080p.WEBRip.AAC2.0.x264-TrollHD[btbtt.co].torrent 0 金币 88.74K 1209 次 2月前

#1樓
发帖時間:2017-01-12 18:13:47   |   回複數:3
blue23
超凡入聖№
感謝樓主分享
2月前 #2樓
liyouchai
超凡入聖№
謝謝樓主分享資源
2月前 #3樓
911degrees
一代宗師
非常感謝,謝謝分享
2月前 #4樓
遊客組