小Q呆
版主

[更 早] [歐美] [喜劇] [BD-720P] [BT下載]说谎者比利 Billy.Liar.1963.REPACK.PROPER.720p.BluRay.x264-GHOULS 4.39 GB

-->

◎譯  名 說謊者比利

◎片  名 Billy Liar

◎年  代 1963

◎國  家 英國

◎類  別 喜劇/劇情/愛情

◎語  言 英語

◎上映日期 1963-08

◎IMDb评分  7.5/10 from 4,346 users

◎IMDb链接  http://www.imdb.com/title/tt0056868/

◎豆瓣评分 7.6/10 from 316 users

◎豆瓣鏈接 https://movie.douban.com/subject/1427349/

◎BT之家整理

◎片  长 98 分钟

◎导  演 约翰·施莱辛格 John Schlesinger

◎主  演 汤姆·康特奈 Tom Courtenay

      Wilfred Pickles

      莫娜·沃什伯恩 Mona Washbourne

      艾塞尔·格里菲斯 Ethel Griffies

      芬利·柯里 Finlay Currie

      朱莉·克里斯蒂 Julie Christie


◎簡  介


  比利在生活中无所归依,只能幻想自己的作家梦有朝一日能够实现。他的生活自然很艰难,然而正是无尽的谎言使他的生活一团糟。比如他不得不周旋于“两个未婚妻”之间……是的,两个。最后,比利面对自己的现实生活,终于向实现梦想迈出了第一步,抛却了自己的幻想世界——而这都拜一个女人所赐,她由年轻的朱莉克里斯蒂(Julie Christie)扮演。

  本片获得六项英国電影学院奖提名,并在1963年威尼斯電影节获得一项金狮奖提名。



Complete name : billy.liar.1963.repack.proper.720p.bluray.x264-ghouls.mkv
Format : Matroska
Format version : Version 4 / Version 2
File size : 4.37 GiB
Duration : 1 h 38 min
Overall bit rate : 6 331 kb/s
Encoded date : UTC 2017-01-10 09:22:22
Writing application : mkvmerge v9.7.1 (\'Pandemonium\') 32bit
Writing library : libebml v1.3.4 + libmatroska v1.4.5

Video
ID : 2
Format : AVC
Format/Info : Advanced Video Codec
Format profile : [email protected]
Format settings, CABAC : Yes
Format settings, ReFrames : 5 frames
Codec ID : V_MPEG4/ISO/AVC
Duration : 1 h 38 min
Bit rate : 5 689 kb/s
Width : 1 280 pixels
Height : 544 pixels
Display aspect ratio : 2.35:1
Frame rate mode : Constant
Frame rate : 24.000 FPS
Color space : YUV
Chroma subsampling : 4:2:0
Bit depth : 8 bits
Scan type : Progressive
Bits/(Pixel*Frame) : 0.340
Stream size : 3.84 GiB (88%)
Writing library : x264 core 148 r2744 b97ae06
Encoding settings : cabac=1 / ref=5 / deblock=1:-3:-3 / analyse=0x3:0x133 / me=umh / subme=8 / psy=1 / psy_rd=1.00:0.00 / mixed_ref=1 / me_range=16 / chroma_me=1 / trellis=1 / 8x8dct=1 / cqm=0 / deadzone=21,11 / fast_pskip=0 / chroma_qp_offset=-2 / threads=6 / lookahead_threads=1 / sliced_threads=0 / nr=0 / decimate=1 / interlaced=0 / bluray_compat=0 / constrained_intra=0 / bframes=3 / b_pyramid=2 / b_adapt=1 / b_bias=0 / direct=3 / weightb=1 / open_gop=0 / weightp=2 / keyint=240 / keyint_min=24 / scenecut=40 / intra_refresh=0 / rc_lookahead=50 / rc=2pass / mbtree=1 / bitrate=5689 / ratetol=1.0 / qcomp=0.60 / qpmin=0 / qpmax=69 / qpstep=4 / cplxblur=20.0 / qblur=0.5 / vbv_maxrate=62500 / vbv_bufsize=78125 / nal_hrd=none / filler=0 / ip_ratio=1.40 / aq=1:1.00
Default : Yes
Forced : No

Audio
ID : 1
Format : AC-3
Format/Info : Audio Coding 3
Mode extension : CM (complete main)
Format settings, Endianness : Big
Codec ID : A_AC3
Duration : 1 h 38 min
Bit rate mode : Constant
Bit rate : 640 kb/s
Channel(s) : 1 channel
Channel positions : Front: C
Sampling rate : 48.0 kHz
Frame rate : 31.250 FPS (1536 spf)
Compression mode : Lossy
Stream size : 453 MiB (10%)
Language : English
Default : Yes
Forced : No

Menu
00:00:00.000 : en:00:00:00.000
00:07:09.208 : en:00:07:09.208
00:16:18.625 : en:00:16:18.625
00:26:17.042 : en:00:26:17.042
00:31:16.625 : en:00:31:16.625
00:40:55.167 : en:00:40:55.167
00:49:26.875 : en:00:49:26.875
00:56:49.917 : en:00:56:49.917
01:04:58.875 : en:01:04:58.875
01:14:14.958 : en:01:14:14.958
01:23:56.625 : en:01:23:56.625
01:30:51.917 : en:01:30:51.917

Screens.png

Click Image To View Full Size

eHWRt.th.jpg
Click To View Screenshot
Click To View Screenshot
Click To View Screenshot


1 個附件 售價 大小 下載 時間

Billy.Liar.1963.REPACK.PROPER.720p.BluRay.x264-GHOULS[btbtt.co].torrent 0 金币 6.96K 294 次 4天前

#1樓
发帖時間:2017-01-12 16:46:48   |   回複數:2
blue23
超凡入聖№
感謝樓主分享
4天前 #2樓
liyouchai
一代宗師
謝謝樓主分享資源
4天前 #3樓
遊客組