aoloffline
版主

[2013] [歐美] [紀錄] [WEB-1080P] [BT下載]Toy.Place.2013.1080p.WEBRip.DD2.0.x264-TrollHD 1.35GB

-->

暫無中文簡介


http://imdb.com/title/tt3357772/ 


After accidentally discovering a toy museum in Vermont| filmmaker Ben Churchill decided to make a documentary about who's behind the collection of nearly 100|000
toys and why some people still enjoy them as an adult.


Video
ID                                       : 1
Format                                   : AVC
Format/Info                              : Advanced Video Codec
Format profile                           : [email protected]
Format settings, CABAC                   : Yes
Format settings, ReFrames                : 4 frames
Codec ID                                 : V_MPEG4/ISO/AVC
Duration                                 : 17mn 37s
Bit rate                                 : 10.3 Mbps
Width                                    : 1 920 pixels
Height                                   : 1 080 pixels
Display aspect ratio                     : 16:9
Frame rate mode                          : Constant
Frame rate                               : 29.970 (30000/1001) fps
Color space                              : YUV
Chroma subsampling                       : 4:2:0
Bit depth                                : 8 bits
Scan type                                : Progressive
Bits/(Pixel*Frame)                       : 0.166
Stream size                              : 1.27 GiB (94%)
Writing library                          : x264 core 146 r2538 121396c
Encoding settings                        : cabac=1 / ref=4 / deblock=1:-2:-2 / analyse=0x3:0x133 / me=umh / subme=10 / psy=1 / psy_rd=1.00:0.15 / mixed_ref=1 / me_range=48 / chroma_me=1 / trellis=2 / 8x8dct=1 / cqm=0 / deadzone=21,11 / fast_pskip=1 / chroma_qp_offset=-3 / threads=12 / lookahead_threads=2 / sliced_threads=0 / nr=0 / decimate=0 / interlaced=0 / bluray_compat=0 / constrained_intra=0 / bframes=8 / b_pyramid=2 / b_adapt=2 / b_bias=0 / direct=3 / weightb=1 / open_gop=0 / weightp=2 / keyint=300 / keyint_min=29 / scenecut=40 / intra_refresh=0 / rc_lookahead=60 / rc=crf / mbtree=1 / crf=18.0 / qcomp=0.70 / qpmin=0 / qpmax=69 / qpstep=4 / vbv_maxrate=300000 / vbv_bufsize=300000 / crf_max=0.0 / nal_hrd=none / filler=0 / ip_ratio=1.30 / aq=1:0.90
Default                                  : Yes
Forced                                   : No

Audio
ID                                       : 2
Format                                   : AC-3
Format/Info                              : Audio Coding 3
Mode extension                           : CM (complete main)
Format settings, Endianness              : Big
Codec ID                                 : A_AC3
Duration                                 : 17mn 37s
Bit rate mode                            : Constant
Bit rate                                 : 640 Kbps
Channel(s)                               : 2 channels
Channel positions                        : Front: L R
Sampling rate                            : 48.0 KHz
Frame rate                               : 31.250 fps (1536 spf)
Compression mode                         : Lossy
Stream size                              : 80.7 MiB (6%)
Language                                 : English
Default                                  : Yes
Forced                                   : No



1 個附件 售價 大小 下載 時間

Toy.Place.2013.1080p.WEBRip.DD2.0.x264-TrollHD[btbtt.co].torrent 0 金币 27.50K 861 次 1月前

#1樓
发帖時間:2017-01-12 10:08:30   |   回複數:3
911degrees
一代宗師
非常感謝,謝謝分享
1月前 #2樓
blue23
超凡入聖№
感謝樓主分享
1月前 #3樓
liyouchai
一代宗師
謝謝樓主分享資源
1月前 #4樓
遊客組