aoloffline
版主

[更 早] [歐美] [喜劇] [WEB-1080P] [BT下載]爱情甜不辣 The.Sweetest.Thing.2002.1080p.WEBRip.AAC2.0.x264-TrollHD 6.2GB

-->

◎譯  名 愛情甜不辣/索女十誡/甜姐不辣/甜美夜歸人/最甜蜜的事

◎片  名 The Sweetest Thing

◎年  代 2002

◎國  家 美國

◎類  別 喜劇/愛情

◎語  言 英語

◎上映日期 2002-04-12

◎IMDb评分  5.1/10 from 46,959 users

◎IMDb链接  http://www.imdb.com/title/tt0253867/

◎豆瓣评分 5.8/10 from 1,381 users

◎豆瓣鏈接 https://movie.douban.com/subject/1306918/

◎BT之家整理 

◎片  长 88 分钟/Argentina: 85 分钟/Colombia: 82 分钟/Netherlands: 87 分钟/Spain: 90 分钟(unrated version)/USA: 90 分钟(unrated version)

◎导  演 罗杰·昆宝 Roger Kumble

◎主  演 卡梅隆·迪亚茨 Cameron Diaz

      托马斯·简 Thomas Jane

      克里斯蒂娜·艾伯盖特 Christina Applegate

      塞尔玛·布莱尔 Selma Blair

      杰森·贝特曼 Jason Bateman


◎簡  介


  克里斯蒂娜((卡梅隆·迪亚茨 Cameron Diaz 饰))与好姐妹简(塞尔玛·布莱尔 Selma Blair 饰)和康妮(克里斯蒂娜·艾伯盖特 Christina Applegate 饰)常常出入各大酒吧与夜总会,在克里斯蒂娜的眼里,没有她搞不定的男人,她深知自己魅力无穷,也十分享受被帅哥俊男包围和簇拥的快感,但同时她也明白,那些为了自己的容貌和身材神魂颠倒的男人们没有一个值得自己托付终身。

  一次偶然中,克里斯蒂娜结识了名叫彼得(托马斯·简 Thomas Jane 饰)的男子,对于克里斯蒂娜风情万种的热烈攻势,他居然视而不见很快就拍屁股走了人。第一次尝到失败滋味的克里斯蒂娜燃起了斗志,她不相信彼得真的对自己无动于衷。在姐妹们的帮助下,一场男女之间的猫鼠游戏就此展开,与此同时,真爱也悄悄降临到了她们的头上。


Video
ID                                       : 1
Format                                   : AVC
Format/Info                              : Advanced Video Codec
Format profile                           : [email protected]
Format settings, CABAC                   : Yes
Format settings, ReFrames                : 4 frames
Format settings, GOP                     : M=4, N=48
Codec ID                                 : avc1
Codec ID/Info                            : Advanced Video Coding
Duration                                 : 1h 28mn
Bit rate mode                            : Constant
Bit rate                                 : 10 000 Kbps
Width                                    : 1 920 pixels
Height                                   : 1 080 pixels
Display aspect ratio                     : 16:9
Frame rate mode                          : Constant
Frame rate                               : 23.976 (24000/1001) fps
Color space                              : YUV
Chroma subsampling                       : 4:2:0
Bit depth                                : 8 bits
Scan type                                : Progressive
Bits/(Pixel*Frame)                       : 0.201
Stream size                              : 6.18 GiB (99%)
Language                                 : English
Encoded date                             : UTC 2014-08-26 00:57:00
Tagged date                              : UTC 2014-08-26 00:57:00
Color range                              : Limited
Color primaries                          : BT.709
Transfer characteristics                 : BT.709
Matrix coefficients                      : BT.709

Audio
ID                                       : 2
Format                                   : AAC
Format/Info                              : Advanced Audio Codec
Format profile                           : LC
Codec ID                                 : 40
Duration                                 : 1h 28mn
Bit rate mode                            : Variable
Bit rate                                 : 125 Kbps
Maximum bit rate                         : 160 Kbps
Channel(s)                               : 2 channels
Channel positions                        : Front: L R
Sampling rate                            : 48.0 KHz
Frame rate                               : 46.875 fps (1024 spf)
Compression mode                         : Lossy
Stream size                              : 79.4 MiB (1%)
Language                                 : English
Encoded date                             : UTC 2014-08-26 00:57:00
Tagged date                              : UTC 2014-08-26 00:57:00





1 個附件 售價 大小 下載 時間

The.Sweetest.Thing.2002.1080p.WEBRip.AAC2.0.x264-TrollHD[btbtt.co].torrent 0 金币 63.27K 561 次 2月前

#1樓
发帖時間:2017-01-12 10:04:47   |   回複數:3
911degrees
一代宗師
非常感謝,謝謝分享
2月前 #2樓
blue23
超凡入聖№
感謝樓主分享
2月前 #3樓
liyouchai
超凡入聖№
謝謝樓主分享資源
2月前 #4樓
遊客組