aoloffline
版主

[2012] [歐美] [喜劇] [WEB-1080P] [BT下載]婴儿车攻略/童车策略 The.Stroller.Strategy.2012.1080p.WEBRip.AAC2.0.x264-TrollHD 6.3

-->

◎譯  名 嬰兒車攻略/童車策略

◎片  名 La Stratégie de la poussette

◎年  代 2012

◎國  家 法國

◎類  別 喜劇/愛情

◎語  言 法語

◎上映日期 2013-01-02(法國)

◎IMDb评分  5.5/10 from 638 users

◎IMDb链接  http://www.imdb.com/title/tt2520516/

◎豆瓣评分 7.1/10 from 168 users

◎豆瓣鏈接 https://movie.douban.com/subject/20498797/

◎BT之家整理 

◎片  長 90分鍾

◎导  演 Clément Michel

◎主  演 拉斐尔·佩尔索纳 Raphal Personnaz

      夏洛特·勒邦 Charlotte Lebon


◎簡  介


  故事敘述湯瑪因爲不想生兒育女,也不想給承諾,結果給瑪麗甩了。一年後,湯瑪還是心系瑪麗。在偶然的機會下,湯瑪代替鄰居照顧她襁褓中的嬰兒。他靈機一動,想運用這個機會扮演好爸爸,讓瑪麗回心轉意。

  前任Canal+气象小姐夏洛特·勒崩Charlotte Le Bon)和法国新生代演员拉斐尔·培松纳兹(Raphal Personnaz)合演的爱情喜剧。

Video
ID                                       : 1
Format                                   : AVC
Format/Info                              : Advanced Video Codec
Format profile                           : [email protected]
Format settings, CABAC                   : Yes
Format settings, ReFrames                : 4 frames
Codec ID                                 : avc1
Codec ID/Info                            : Advanced Video Coding
Duration                                 : 1h 29mn
Bit rate mode                            : Constant
Bit rate                                 : 10 000 Kbps
Width                                    : 1 920 pixels
Height                                   : 1 080 pixels
Display aspect ratio                     : 16:9
Frame rate mode                          : Constant
Frame rate                               : 24.000 fps
Color space                              : YUV
Chroma subsampling                       : 4:2:0
Bit depth                                : 8 bits
Scan type                                : Progressive
Bits/(Pixel*Frame)                       : 0.201
Stream size                              : 6.26 GiB (99%)
Language                                 : English
Encoded date                             : UTC 2014-01-19 18:23:57
Tagged date                              : UTC 2014-01-19 18:23:57
Color range                              : Limited
Color primaries                          : BT.709
Transfer characteristics                 : BT.709
Matrix coefficients                      : BT.709

Audio
ID                                       : 2
Format                                   : AAC
Format/Info                              : Advanced Audio Codec
Format profile                           : LC
Codec ID                                 : 40
Duration                                 : 1h 29mn
Bit rate mode                            : Variable
Bit rate                                 : 125 Kbps
Maximum bit rate                         : 288 Kbps
Channel(s)                               : 2 channels
Channel positions                        : Front: L R
Sampling rate                            : 48.0 KHz
Frame rate                               : 46.875 fps (1024 spf)
Compression mode                         : Lossy
Stream size                              : 80.4 MiB (1%)
Language                                 : English
Encoded date                             : UTC 2014-01-19 18:23:57
Tagged date                              : UTC 2014-01-19 18:23:57





1 個附件 售價 大小 下載 時間

The.Stroller.Strategy.2012.1080p.WEBRip.AAC2.0.x264-TrollHD[btbtt.co].torrent 0 金币 64.01K 329 次 1月前

#1樓
发帖時間:2017-01-12 10:01:15   |   回複數:4
albb2188
武林高手
感謝樓主提供分享影片資源!
1月前 #2樓
911degrees
一代宗師
非常感謝,謝謝分享
1月前 #3樓
blue23
超凡入聖№
感謝樓主分享
1月前 #4樓
liyouchai
一代宗師
謝謝樓主分享資源
1月前 #5樓
遊客組