aoloffline
版主

[更 早] [歐美] [喜劇] [WEB-1080P] [BT下載]莉琪的异想世界 The.Lizzie.McGuire.Movie.2003.1080p.WEBRip.AAC2.0.x264-TrollHD 6.3

-->

◎譯  名 莉琪的異想世界/平民天後/麻雀變明星

◎片  名 The Lizzie McGuire Movie

◎年  代 2003

◎國  家 美國

◎类  别 冒险/喜剧/家庭/音樂/爱情

◎語  言 英語/意大利語

◎上映日期 2003-05-02(美國)

◎IMDb评分  5.4/10 from 28,535 users

◎IMDb链接  http://www.imdb.com/title/tt0306841/

◎豆瓣评分 6.8/10 from 17,836 users

◎豆瓣鏈接 https://movie.douban.com/subject/1298297/

◎BT之家整理 

◎片  长 94 分钟

◎导  演 吉姆·弗尔 Jim Fall

◎主  演 希拉里·达芙 Hilary Duff

      亚当·兰伯格 Adam Lamberg

      雅尼·吉尔曼 Yani Gellman

      罗伯特·卡拉丁 Robert Carradine

      杰克·托马斯 Jake Thomas

      卡莉·许洛德 Carly Schroeder


◎簡  介


  莉琪(希拉里·达芙 Hilary Duff饰)的欧洲之行真是充满“离奇”!本来她是一名在学校屡屡出丑的女生,和同伴来到意大利旅行之后,神奇的经历就纷至沓来。

  都怪莉琪長得太像意大利的歌星伊麗莎白,伊麗莎白的情歌對唱搭檔保羅,把這個小女生當成了樂壇紅人。在保羅的安排下,莉琪作爲“伊麗莎白”的星途迅速鋪開,她亦以自己的魅力征服萬千歌迷,然而,上帝真的如此眷戀莉琪嗎?少不更事的莉琪,沒想到自己已經陷進了一場陰謀當中。

  幸好,莉琪還有一幫守望相助的朋友,他們在合力保護著莉琪不受傷害,莉琪在美妙的夢境中醒來時,會發現最真實最寶貴的,是身邊可愛的友人。



Video
ID                                       : 1
Format                                   : AVC
Format/Info                              : Advanced Video Codec
Format profile                           : [email protected]
Format settings, CABAC                   : Yes
Format settings, ReFrames                : 4 frames
Codec ID                                 : avc1
Codec ID/Info                            : Advanced Video Coding
Duration                                 : 1h 29mn
Source duration                          : 1h 29mn
Bit rate mode                            : Constant
Bit rate                                 : 10 000 Kbps
Width                                    : 1 920 pixels
Height                                   : 1 080 pixels
Display aspect ratio                     : 16:9
Frame rate mode                          : Constant
Frame rate                               : 25.000 fps
Standard                                 : PAL
Color space                              : YUV
Chroma subsampling                       : 4:2:0
Bit depth                                : 8 bits
Scan type                                : Progressive
Bits/(Pixel*Frame)                       : 0.193
Stream size                              : 6.28 GiB (99%)
Source stream size                       : 6.28 GiB (99%)
Language                                 : English
Encoded date                             : UTC 2014-01-18 22:31:33
Tagged date                              : UTC 2014-01-18 22:31:33
Color range                              : Limited
Color primaries                          : BT.709
Transfer characteristics                 : BT.709
Matrix coefficients                      : BT.709

Audio
ID                                       : 2
Format                                   : AAC
Format/Info                              : Advanced Audio Codec
Format profile                           : LC
Codec ID                                 : 40
Duration                                 : 1h 29mn
Bit rate mode                            : Variable
Bit rate                                 : 125 Kbps
Maximum bit rate                         : 209 Kbps
Channel(s)                               : 2 channels
Channel positions                        : Front: L R
Sampling rate                            : 48.0 KHz
Frame rate                               : 46.875 fps (1024 spf)
Compression mode                         : Lossy
Stream size                              : 80.7 MiB (1%)
Language                                 : English
Encoded date                             : UTC 2014-01-18 22:31:33
Tagged date                              : UTC 2014-01-18 22:31:33





1 個附件 售價 大小 下載 時間

The.Lizzie.McGuire.Movie.2003.1080p.WEBRip.AAC2.0.x264-TrollHD[btbtt.co].torrent 0 金币 64.31K 413 次 5天前

#1樓
发帖時間:2017-01-12 09:56:31   |   回複數:4
albb2188
武林高手
感謝樓主提供分享影片資源!
5天前 #2樓
911degrees
一代宗師
非常感謝,謝謝分享
5天前 #3樓
blue23
超凡入聖№
感謝樓主分享
5天前 #4樓
liyouchai
一代宗師
謝謝樓主分享資源
5天前 #5樓
遊客組