aoloffline
版主

[2015] [歐美] [動畫] [WEB-1080P] [BT下載]小羊肖恩:农夫的美洲驼 Shaun.The.Sheep.2015.1080p.WEBRip.DD2.0.x264-TrollHD 1.16GB

-->

◎譯  名 小羊肖恩:農夫的美洲駝

◎片  名 Shaun the Sheep: The Farmer's Llamas

◎年  代 2015

◎國  家 英國

◎類  別 動畫

◎語  言 無對白

◎上映日期 2015-12-26(英國)

◎IMDb评分  7.0/10 from 286 users

◎IMDb链接  http://www.imdb.com/title/tt5174284/

◎豆瓣评分 9.0/10 from 18 users

◎豆瓣鏈接 https://movie.douban.com/subject/26675331/

◎BT之家整理 

◎片  長 28分鍾

◎导  演 尼克·帕克 Nick Park

◎主  演 贾斯汀·弗莱彻 Justin Fletcher

      约翰·斯帕克斯 John Sparkes

      西恩·康诺利 Sean Connolly

      Chris Grimes


◎簡  介


  When the Farmer and Bitzer go to a Country Fair| Shaun steals away with them intent on causing mischief. Besotted by the exotic creatures he spots at auction| Shauncleverly gets the unwitting Farmer to buy them. Back at Mossy Bottom Farm| Shaun is delighted with his prank and convinces the flock that the llamas are just whatthey need to spice up their lives. At first everything's great fun| but soon their new llama room-mates get a bit too comfortable in their new home. When thingsspiral out of control| Shaun is forced to take action to oust the intruders and save the farm.


Video
ID                                       : 1
Format                                   : AVC
Format/Info                              : Advanced Video Codec
Format profile                           : [email protected]
Format settings, CABAC                   : Yes
Format settings, ReFrames                : 4 frames
Codec ID                                 : V_MPEG4/ISO/AVC
Duration                                 : 28mn 2s
Bit rate                                 : 5 285 Kbps
Width                                    : 1 920 pixels
Height                                   : 1 080 pixels
Display aspect ratio                     : 16:9
Frame rate mode                          : Constant
Frame rate                               : 23.976 (24000/1001) fps
Color space                              : YUV
Chroma subsampling                       : 4:2:0
Bit depth                                : 8 bits
Scan type                                : Progressive
Bits/(Pixel*Frame)                       : 0.106
Stream size                              : 1.04 GiB (89%)
Writing library                          : x264 core 146 r2538 121396c
Encoding settings                        : cabac=1 / ref=4 / deblock=1:-2:-2 / analyse=0x3:0x133 / me=umh / subme=10 / psy=1 / psy_rd=1.00:0.15 / mixed_ref=1 / me_range=48 / chroma_me=1 / trellis=2 / 8x8dct=1 / cqm=0 / deadzone=21,11 / fast_pskip=1 / chroma_qp_offset=-3 / threads=12 / lookahead_threads=2 / sliced_threads=0 / nr=0 / decimate=0 / interlaced=0 / bluray_compat=0 / constrained_intra=0 / bframes=8 / b_pyramid=2 / b_adapt=2 / b_bias=0 / direct=3 / weightb=1 / open_gop=0 / weightp=2 / keyint=240 / keyint_min=23 / scenecut=40 / intra_refresh=0 / rc_lookahead=60 / rc=crf / mbtree=1 / crf=18.0 / qcomp=0.70 / qpmin=0 / qpmax=69 / qpstep=4 / vbv_maxrate=300000 / vbv_bufsize=300000 / crf_max=0.0 / nal_hrd=none / filler=0 / ip_ratio=1.30 / aq=1:0.90
Default                                  : Yes
Forced                                   : No

Audio
ID                                       : 2
Format                                   : AC-3
Format/Info                              : Audio Coding 3
Mode extension                           : CM (complete main)
Format settings, Endianness              : Big
Codec ID                                 : A_AC3
Duration                                 : 28mn 2s
Bit rate mode                            : Constant
Bit rate                                 : 640 Kbps
Channel(s)                               : 2 channels
Channel positions                        : Front: L R
Sampling rate                            : 48.0 KHz
Frame rate                               : 31.250 fps (1536 spf)
Compression mode                         : Lossy
Stream size                              : 128 MiB (11%)
Language                                 : English
Default                                  : Yes
Forced                                   : No




1 個附件 售價 大小 下載 時間

Shaun.The.Sheep.The.Farmers.Llamas.2015.1080p.WEBRip.DD2.0.x264-TrollHD[btbtt.co].torrent 0 金币 23.88K 4212 次 4月前

#1樓
請幫忙分享到: | Twitter | Google+ | 微博 | 更多… 发帖時間:2017-01-12 09:52:58   |   回複數:4
911degrees
一代宗師
非常感謝,謝謝分享
4月前 #2樓
zma729
武林高手
good ... Thanks a lot ! 感谢楼主 ! 感谢 !
4月前 #3樓
blue23
超凡入聖№
感謝樓主分享
4月前 #4樓
liyouchai
超凡入聖№
謝謝樓主分享資源
4月前 #5樓
遊客組