aoloffline
版主

[2014] [歐美] [紀錄] [WEB-1080P] [BT下載]Mala.Mala.2014.1080p.WEBRip.DD2.0.x264-TrollHD 4.7GB

-->

◎譯  名 

◎片  名 Mala Mala

◎年  代 2014

◎國  家 美國/波多黎各

◎類  別 傳記/紀錄片

◎語  言 英語/西班牙語

◎上映日期 2014

◎IMDb评分  6.5/10 from 341 users

◎IMDb链接  http://www.imdb.com/title/tt3314958/

◎BT之家整理 

◎片  長 87分鍾

◎导  演 Antonio Santini / Dan Sickles

◎主  演 Jason Carrión

      Samantha Close

      Ivana Fred

      Queen Bee Ho


◎簡  介


  Mala Mala is a feature-length documentary about the power of transformation told through the eyes of 9 trans-identifying individuals in Puerto Rico.


Video
ID                                       : 1
Format                                   : AVC
Format/Info                              : Advanced Video Codec
Format profile                           : [email protected]
Format settings, CABAC                   : Yes
Format settings, ReFrames                : 4 frames
Codec ID                                 : V_MPEG4/ISO/AVC
Duration                                 : 1h 29mn
Bit rate                                 : 6 897 Kbps
Width                                    : 1 920 pixels
Height                                   : 1 080 pixels
Display aspect ratio                     : 16:9
Frame rate mode                          : Constant
Frame rate                               : 23.976 (24000/1001) fps
Color space                              : YUV
Chroma subsampling                       : 4:2:0
Bit depth                                : 8 bits
Scan type                                : Progressive
Bits/(Pixel*Frame)                       : 0.139
Stream size                              : 4.30 GiB (91%)
Writing library                          : x264 core 146 r2538 121396c
Encoding settings                        : cabac=1 / ref=4 / deblock=1:-2:-2 / analyse=0x3:0x133 / me=umh / subme=10 / psy=1 / psy_rd=1.00:0.15 / mixed_ref=1 / me_range=48 / chroma_me=1 / trellis=2 / 8x8dct=1 / cqm=0 / deadzone=21,11 / fast_pskip=1 / chroma_qp_offset=-3 / threads=12 / lookahead_threads=2 / sliced_threads=0 / nr=0 / decimate=0 / interlaced=0 / bluray_compat=0 / constrained_intra=0 / bframes=8 / b_pyramid=2 / b_adapt=2 / b_bias=0 / direct=3 / weightb=1 / open_gop=0 / weightp=2 / keyint=240 / keyint_min=23 / scenecut=40 / intra_refresh=0 / rc_lookahead=60 / rc=crf / mbtree=1 / crf=18.0 / qcomp=0.70 / qpmin=0 / qpmax=69 / qpstep=4 / vbv_maxrate=300000 / vbv_bufsize=300000 / crf_max=0.0 / nal_hrd=none / filler=0 / ip_ratio=1.30 / aq=1:0.90
Default                                  : Yes
Forced                                   : No

Audio
ID                                       : 2
Format                                   : AC-3
Format/Info                              : Audio Coding 3
Mode extension                           : CM (complete main)
Format settings, Endianness              : Big
Codec ID                                 : A_AC3
Duration                                 : 1h 29mn
Bit rate mode                            : Constant
Bit rate                                 : 640 Kbps
Channel(s)                               : 2 channels
Channel positions                        : Front: L R
Sampling rate                            : 48.0 KHz
Frame rate                               : 31.250 fps (1536 spf)
Compression mode                         : Lossy
Stream size                              : 408 MiB (8%)
Language                                 : English
Default                                  : Yes
Forced                                   : No




#1樓
請幫忙分享到: | Twitter | Google+ | 微博 | 更多… 發帖時間:2017-01-12 09:47:35   |   回複數:3
911degrees
一代宗師
非常感謝,謝謝分享
4月前 #2樓
blue23
超凡入聖№
感謝樓主分享
4月前 #3樓
liyouchai
超凡入聖№
謝謝樓主分享資源
4月前 #4樓
遊客組