aoloffline
版主

[2014] [歐美] [紀錄] [WEB-1080P] [BT下載]Fagbug.Nation.2014.1080p.WEBRip.DD2.0.x264-TrollHD 8.61GB

-->

◎譯  名 

◎片  名 Fagbug Nation

◎年  代 2014

◎國  家 美國

◎類  別 紀錄片

◎語  言 英語

◎IMDb评分  8.0/10 from 7 users

◎IMDb链接  http://www.imdb.com/title/tt3262534/

◎BT之家整理 http://www.btbtt.co  

◎片  長 88分鍾

◎导  演 Erin Davies


◎簡  介


  What it's like to drive the once vandalized now famous| 'Fagbug' to all 50 states in the USA.


Video
ID                                       : 2
Format                                   : AVC
Format/Info                              : Advanced Video Codec
Format profile                           : High@L4
Format settings, CABAC                   : Yes
Format settings, ReFrames                : 4 frames
Codec ID                                 : V_MPEG4/ISO/AVC
Duration                                 : 1h 31mn
Bit rate mode                            : Variable
Bit rate                                 : 13.3 Mbps
Maximum bit rate                         : 15.0 Mbps
Width                                    : 1 920 pixels
Height                                   : 1 080 pixels
Display aspect ratio                     : 16:9
Frame rate mode                          : Constant
Frame rate                               : 29.970 (30000/1001) fps
Color space                              : YUV
Chroma subsampling                       : 4:2:0
Bit depth                                : 8 bits
Scan type                                : Progressive
Bits/(Pixel*Frame)                       : 0.214
Stream size                              : 8.47 GiB (98%)
Writing library                          : x264 core 148 r2623 d5b2374
Encoding settings                        : cabac=1 / ref=4 / deblock=1:-1:-1 / analyse=0x3:0x133 / me=umh / subme=9 / psy=1 / psy_rd=1.00:0.15 / mixed_ref=1 / me_range=24 / chroma_me=1 / trellis=2 / 8x8dct=1 / cqm=0 / deadzone=21,11 / fast_pskip=1 / chroma_qp_offset=-3 / threads=34 / lookahead_threads=5 / sliced_threads=0 / nr=150 / decimate=1 / interlaced=0 / bluray_compat=0 / constrained_intra=0 / bframes=8 / b_pyramid=2 / b_adapt=2 / b_bias=0 / direct=3 / weightb=1 / open_gop=0 / weightp=2 / keyint=150 / keyint_min=76 / scenecut=0 / intra_refresh=0 / rc_lookahead=150 / rc=crf / mbtree=1 / crf=18.0 / qcomp=0.60 / qpmin=0 / qpmax=69 / qpstep=4 / vbv_maxrate=15000 / vbv_bufsize=31250 / crf_max=0.0 / nal_hrd=vbr / filler=0 / ip_ratio=1.40 / aq=3:1.00
Default                                  : Yes
Forced                                   : No
Color range                              : Limited
Color primaries                          : BT.709
Transfer characteristics                 : BT.709
Matrix coefficients                      : BT.709

Audio
ID                                       : 1
Format                                   : E-AC-3
Format/Info                              : Audio Coding 3
Format settings, Endianness              : Big
Codec ID                                 : A_EAC3
Duration                                 : 1h 31mn
Bit rate mode                            : Constant
Bit rate                                 : 224 Kbps
Channel(s)                               : 2 channels
Channel positions                        : Front: L R
Sampling rate                            : 48.0 KHz
Frame rate                               : 187.500 fps (256 spf)
Compression mode                         : Lossy
Stream size                              : 146 MiB (2%)
Language                                 : English
Default                                  : Yes
Forced                                   : No

Text
ID                                       : 3
Format                                   : UTF-8
Codec ID                                 : S_TEXT/UTF8
Codec ID/Info                            : UTF-8 Plain Text
Duration                                 : 1h 30mn
Bit rate                                 : 104 bps
Count of elements                        : 1966
Stream size                              : 69.7 KiB (0%)
Default                                  : Yes
Forced                                   : No





1 個附件 售價 大小 下載 時間

Fagbug.Nation.2014.1080p.WEBRip.DD2.0.x264-TrollHD[btbtt.co].torrent 0 金币 86.73K 494 次 5月前

#1樓
发帖時間:2017-01-11 23:34:31   |   回複數:3
liyouchai
超凡入聖№
謝謝樓主分享資源
5月前 #2樓
911degrees
一代宗師
非常感謝,謝謝分享
5月前 #3樓
blue23
超凡入聖№
感謝樓主分享
5月前 #4樓
遊客組