aoloffline
版主

[2010] [歐美] [紀錄] [WEB-1080P] [BT下載]色情之后 After.Porn.Ends.2012.1080p.WEBRip.DD2.0.x264-TrollHD 5.52GB

-->

◎譯  名 色情之後

◎片  名 After Porn Ends

◎年  代 2010

◎國  家 美國

◎類  別 紀錄片/情色

◎語  言 英語

◎上映日期 2012-05-21(美國)

◎IMDb评分  5.7/10 from 5,088 users

◎IMDb链接  http://www.imdb.com/title/tt1291547/

◎豆瓣评分 6.5/10 from 87 users

◎豆瓣鏈接 https://movie.douban.com/subject/20003423/

◎片  長 94分鍾

◎导  演 Bryce Wagoner

◎主  演 玛丽·凯丽 Mary Carey

      艾莎·克莉拉 Asia Carrera

      克里·莫兰 Crissy Moran

      兰迪·韦斯特 Randy West

      Seka

      瑞琳恩 Raylene

      约翰·莱斯利 John Leslie

      安柏·琳恩 Amber Lynn

      Houston

      Tyffany Million

      Shelley Lubben

      理查德·帕切科 Richard Pacheco


◎簡  介


  After Porn Ends, is a documentary that not only examines the lives and careers of some of the biggest names in the history of the adult entertainment industry; but what happens to them after they leave the business and try and live the "normal" lives that millions of other Americans enjoy. They hailed from the rural South, steel towns, and the San Fernando Valley. As teenagers, and young adults, none of them thought that porn was in their future. They were artists, baseball players, child prodigies, and even Ivy Leaguers. Now, after their lives in porn; they're TV stars, bounty hunters, writers, and social activists. What happened in between And now that they've moved on, can they really live a normal life after porn Written by Bryce Wagoner



Video
ID                                       : 1
Format                                   : AVC
Format/Info                              : Advanced Video Codec
Format profile                           : [email protected]
Format settings, CABAC                   : Yes
Format settings, ReFrames                : 4 frames
Codec ID                                 : V_MPEG4/ISO/AVC
Duration                                 : 1h 33mn
Bit rate                                 : 7 845 Kbps
Width                                    : 1 920 pixels
Height                                   : 1 080 pixels
Display aspect ratio                     : 16:9
Frame rate mode                          : Constant
Frame rate                               : 23.976 (24000/1001) fps
Color space                              : YUV
Chroma subsampling                       : 4:2:0
Bit depth                                : 8 bits
Scan type                                : Progressive
Bits/(Pixel*Frame)                       : 0.158
Stream size                              : 5.10 GiB (92%)
Writing library                          : x264 core 146 r2538 121396c
Encoding settings                        : cabac=1 / ref=4 / deblock=1:-2:-2 / analyse=0x3:0x133 / me=umh / subme=10 / psy=1 / psy_rd=1.00:0.15 / mixed_ref=1 / me_range=48 / chroma_me=1 / trellis=2 / 8x8dct=1 / cqm=0 / deadzone=21,11 / fast_pskip=1 / chroma_qp_offset=-3 / threads=12 / lookahead_threads=2 / sliced_threads=0 / nr=0 / decimate=0 / interlaced=0 / bluray_compat=0 / constrained_intra=0 / bframes=8 / b_pyramid=2 / b_adapt=2 / b_bias=0 / direct=3 / weightb=1 / open_gop=0 / weightp=2 / keyint=240 / keyint_min=23 / scenecut=40 / intra_refresh=0 / rc_lookahead=60 / rc=crf / mbtree=1 / crf=18.0 / qcomp=0.70 / qpmin=0 / qpmax=69 / qpstep=4 / vbv_maxrate=300000 / vbv_bufsize=300000 / crf_max=0.0 / nal_hrd=none / filler=0 / ip_ratio=1.30 / aq=1:0.90
Default                                  : Yes
Forced                                   : No

Audio
ID                                       : 2
Format                                   : AC-3
Format/Info                              : Audio Coding 3
Mode extension                           : CM (complete main)
Format settings, Endianness              : Big
Codec ID                                 : A_AC3
Duration                                 : 1h 33mn
Bit rate mode                            : Constant
Bit rate                                 : 640 Kbps
Channel(s)                               : 2 channels
Channel positions                        : Front: L R
Sampling rate                            : 48.0 KHz
Frame rate                               : 31.250 fps (1536 spf)
Compression mode                         : Lossy
Stream size                              : 426 MiB (8%)
Language                                 : English
Default                                  : Yes
Forced                                   : No





1 個附件 售價 大小 下載 時間

After.Porn.Ends.2012.1080p.WEBRip.DD2.0.x264-TrollHD[btbtt.co].torrent 0 金币 55.76K 12489 次 3月前

#1樓
請幫忙分享到: | Twitter | Google+ | 微博 | 更多… 发帖時間:2017-01-11 22:57:06   |   回複數:5
liyouchai
超凡入聖№
謝謝樓主分享資源
3月前 #2樓
911degrees
一代宗師
非常感謝,謝謝分享
3月前 #3樓
170761468
一代宗師
謝謝樓主分享資源
3月前 #4樓
blue23
超凡入聖№
感謝樓主分享
3月前 #5樓
stephen3029
一派掌門
感謝分享
3月前 #6樓
遊客組