aoloffline
版主

[2009] [歐美] [奇幻] [WEB-1080P] [BT下載]少年魔法师電影版 2009.1080p.WEBRip.DD5.1.x264-TrollHD 9.69GB

-->

◎译  名 少年魔法师電影版

◎片  名 Wizards of Waverly Place: The Movie

◎年  代 2009

◎國  家 USA

◎類  別 兒童/喜劇/科幻/奇幻/冒險/家庭

◎語  言 English

◎上映日期 2009-08-28

◎IMDb评分  6.4/10 from 9,858 users

◎IMDb链接  http://www.imdb.com/title/tt1369845/

◎豆瓣评分 6.0/10 from 2,207 users

◎豆瓣鏈接 https://movie.douban.com/subject/3578715/

◎BT之家整理  

◎片  長 94分鍾

◎导  演 Lev L. Spiro

◎主  演 Selena Gomez

      David Henrie

      Jake T. Austin


◎簡  介


  影片根据迪士尼热播的同名劇集改编,该剧将魔法引入美国家庭日常生活,相比《哈利·波特》,这个剧更加幽默并且更具都市感。剧中的卢梭一家是做快餐生意的,因为爸爸出自巫师家庭,所以孩子们从正常学校放学后会在家里和他学习魔法。里面当然也有很多好玩的咒语和道具。每一个巫师家庭的孩子都要通过魔法测验来决定谁能够永久的拥有魔力。所以Alex,Justin,还有Max谁将会是家里最厉害的那个巫师呢?


Video
ID                                       : 3
Format                                   : AVC
Format/Info                              : Advanced Video Codec
Format profile                           : [email protected]
Format settings, CABAC                   : Yes
Format settings, ReFrames                : 4 frames
Codec ID                                 : V_MPEG4/ISO/AVC
Duration                                 : 1h 38mn
Bit rate mode                            : Variable
Bit rate                                 : 13.5 Mbps
Maximum bit rate                         : 15.0 Mbps
Width                                    : 1 920 pixels
Height                                   : 1 080 pixels
Display aspect ratio                     : 16:9
Frame rate mode                          : Constant
Frame rate                               : 23.976 (24000/1001) fps
Color space                              : YUV
Chroma subsampling                       : 4:2:0
Bit depth                                : 8 bits
Scan type                                : Progressive
Bits/(Pixel*Frame)                       : 0.272
Stream size                              : 9.25 GiB (95%)
Writing library                          : x264 core 148 r2623 d5b2374
Encoding settings                        : cabac=1 / ref=4 / deblock=1:-1:-1 / analyse=0x3:0x133 / me=umh / subme=9 / psy=1 / psy_rd=1.00:0.15 / mixed_ref=1 / me_range=24 / chroma_me=1 / trellis=2 / 8x8dct=1 / cqm=0 / deadzone=21,11 / fast_pskip=1 / chroma_qp_offset=-3 / threads=34 / lookahead_threads=5 / sliced_threads=0 / nr=150 / decimate=1 / interlaced=0 / bluray_compat=0 / constrained_intra=0 / bframes=8 / b_pyramid=2 / b_adapt=2 / b_bias=0 / direct=3 / weightb=1 / open_gop=0 / weightp=2 / keyint=120 / keyint_min=61 / scenecut=0 / intra_refresh=0 / rc_lookahead=120 / rc=crf / mbtree=1 / crf=18.0 / qcomp=0.60 / qpmin=0 / qpmax=69 / qpstep=4 / vbv_maxrate=15000 / vbv_bufsize=31250 / crf_max=0.0 / nal_hrd=vbr / filler=0 / ip_ratio=1.40 / aq=3:1.00
Default                                  : Yes
Forced                                   : No
Color range                              : Limited
Color primaries                          : BT.709
Transfer characteristics                 : BT.709
Matrix coefficients                      : BT.709

Audio
ID                                       : 2
Format                                   : E-AC-3
Format/Info                              : Audio Coding 3
Format settings, Endianness              : Big
Codec ID                                 : A_EAC3
Duration                                 : 1h 38mn
Bit rate mode                            : Constant
Bit rate                                 : 640 Kbps
Channel(s)                               : 6 channels
Channel positions                        : Front: L C R, Side: L R, LFE
Sampling rate                            : 48.0 KHz
Frame rate                               : 187.500 fps (256 spf)
Compression mode                         : Lossy
Stream size                              : 449 MiB (5%)
Language                                 : English
Default                                  : Yes
Forced                                   : No

Text
ID                                       : 1
Format                                   : UTF-8
Codec ID                                 : S_TEXT/UTF8
Codec ID/Info                            : UTF-8 Plain Text
Duration                                 : 1h 37mn
Bit rate                                 : 82 bps
Count of elements                        : 1795
Stream size                              : 58.9 KiB (0%)
Default                                  : Yes
Forced                                   : No





1 個附件 售價 大小 下載 時間

Wizards.of.Waverly.Place.The.Movie.2009.1080p.WEBRip.DD5.1.x264-TrollHD[btbtt.co].torrent 0 金币 97.36K 1251 次 2月前

#1樓
发帖時間:2017-01-11 14:42:00   |   回複數:3
911degrees
一代宗師
非常感謝,謝謝分享
2月前 #2樓
liyouchai
超凡入聖№
謝謝樓主分享資源
2月前 #3樓
blue23
超凡入聖№
感謝樓主分享
2月前 #4樓
遊客組