aoloffline
版主

[2010] [歐美] [紀錄] [WEB-1080P] [BT下載]独角戏 Wishful.Drinking.2010.1080p.WEBRip.DD5.1.x264-monkee 2.25GB

-->

◎譯  名 獨角戲

◎片  名 Wishful Drinking (TV)

◎年  代 2010

◎國  家 美國

◎類  別 紀錄片

◎語  言 英語

◎上映日期 2010-12-31(美國)

◎IMDb评分  7.4/10 from 1,036 users

◎IMDb链接  http://www.imdb.com/title/tt1705977/

◎豆瓣评分 8.4/10 from 13 users

◎豆瓣鏈接 https://movie.douban.com/subject/5392935/

◎BT之家整理  

◎导  演 Fenton Bailey / Randy Barbato

◎主  演 Carrie Fisher


◎簡  介


  我們轟炸所謂的現實電視的時候,我發現這個女人在現實電視節目已經把“真正的”。嘉莉費雪覆蓋了她的生活,從一開始就通過當今時代留下任何的想象力。這當然不是一個完美的世界裏,她向我們展示了她的缺點,以及那些誰一直是生活的一部分。鑒于多遠,她的家族樹達到全世界的名流到她有任何對現實世界的範圍,這是驚人的。該節目是傷心,以及令人難以置信的時間。我沒有發現它是殘酷的,粗魯或厭惡任何方式。這裏是什麽,是她的人生故事充滿了時好時壞,因爲我們所有的人,雖然她一直在公衆的視線。費舍爾女士故意給了我們充足的根據和喜劇色彩的,無論是悲劇還是全力以赴打鬧。一個愉快的節目,至少可以這樣說。



Video
ID                                       : 2
Format                                   : AVC
Format/Info                              : Advanced Video Codec
Format profile                           : [email protected]
Format settings, CABAC                   : Yes
Format settings, ReFrames                : 4 frames
Codec ID                                 : V_MPEG4/ISO/AVC
Duration                                 : 1h 15mn
Bit rate mode                            : Variable
Bit rate                                 : 3 595 Kbps
Maximum bit rate                         : 4 510 Kbps
Width                                    : 1 920 pixels
Height                                   : 1 080 pixels
Display aspect ratio                     : 16:9
Frame rate mode                          : Constant
Frame rate                               : 23.976 (24000/1001) fps
Color space                              : YUV
Chroma subsampling                       : 4:2:0
Bit depth                                : 8 bits
Scan type                                : Progressive
Bits/(Pixel*Frame)                       : 0.072
Stream size                              : 1.91 GiB (85%)
Default                                  : Yes
Forced                                   : No

Audio
ID                                       : 3
Format                                   : E-AC-3
Format/Info                              : Audio Coding 3
Format settings, Endianness              : Big
Codec ID                                 : A_EAC3
Duration                                 : 1h 15mn
Bit rate mode                            : Constant
Bit rate                                 : 640 Kbps
Channel(s)                               : 6 channels
Channel positions                        : Front: L C R, Side: L R, LFE
Sampling rate                            : 48.0 KHz
Frame rate                               : 187.500 fps (256 spf)
Compression mode                         : Lossy
Stream size                              : 347 MiB (15%)
Default                                  : Yes
Forced                                   : No

Text
ID                                       : 1
Format                                   : UTF-8
Codec ID                                 : S_TEXT/UTF8
Codec ID/Info                            : UTF-8 Plain Text
Duration                                 : 1h 15mn
Bit rate                                 : 119 bps
Count of elements                        : 1518
Stream size                              : 65.9 KiB (0%)
Language                                 : English
Default                                  : No
Forced                                   : No





1 個附件 售價 大小 下載 時間

Wishful.Drinking.2010.1080p.WEBRip.DD5.1.x264-monkee[btbtt.co].torrent 0 金币 45.53K 294 次 1月前

#1樓
发帖時間:2017-01-11 14:39:12   |   回複數:3
911degrees
一代宗師
非常感謝,謝謝分享
1月前 #2樓
liyouchai
超凡入聖№
謝謝樓主分享資源
1月前 #3樓
blue23
超凡入聖№
感謝樓主分享
1月前 #4樓
遊客組