aoloffline
版主

[更 早] [歐美] [喜劇] [WEB-1080P] [BT下載]天才也疯狂/天生一对宝 What.About.Bob.1991.1080p.WEBRip.DD5.1.x264-TrollHD 9GB

-->

◎譯  名 天才也瘋狂/天生一對寶

◎片  名 What About Bob?

◎年  代 1991

◎國  家 美國

◎類  別 喜劇

◎語  言 英語

◎上映日期 1991-05-17(美國)

◎IMDb评分  7.0/10 from 51,708 users

◎IMDb链接  http://www.imdb.com/title/tt0103241/

◎豆瓣评分 7.0/10 from 204 users

◎豆瓣鏈接 https://movie.douban.com/subject/1295033/

◎BT之家整理 http://www.btbtt.co 

◎片  长 99 分钟

◎导  演 弗兰克·奥兹 Frank Oz

◎主  演 比尔·默瑞 Bill Murray

      理查德·德莱弗斯 Richard Dreyfuss

      朱丽·哈基提 Julie Hagerty

      查理·科斯莫 Charlie Korsmo

      凯瑟琳·厄布 Kathryn Erbe

      汤姆·奥尔德里奇 Tom Aldredge

      苏珊·威利斯 Susan Willis

      罗杰·鲍恩 Roger Bowen

      弗兰·布里尔 Fran Brill

      多丽丝·布莱克 Doris Belack

      梅林达·穆林斯 Melinda Mullins

      Marcella Lowery

      芭芭拉·安德烈斯 Barbara Andres

      艾达·特托罗 Aida Turturro

      斯图亚特·鲁丁 Stuart Rudin


◎簡  介


  鲍勃(比尔·默瑞 Bill Murray饰)对这个世界充满不安,他视之为精神疾病,找到权威的心理专家里奥(理查德·德莱福斯 Richard Dreyfuss饰)请求治疗。里奥度假在即,并准备着前往宣传他的新书,于是只交给鲍勃一本新书让他阅读。

  鮑勃對一切都如此沒有把握,他瘋狂地尋找裏奧醫生,想方設法來到裏奧的度假地。這次打擾讓裏奧十分氣惱。他美妙的假日時光,他的新書宣傳計劃,將隨著這個病人的到來而發生徹底的改變。更令裏奧招架不住的是,他屢屢大費周章支走這個麻煩病人,最終總讓自己陷入更大的麻煩,而鮑勃卻每每獲得衆人的支持和喜愛。鮑勃的病一天天好起來,而裏奧的黴運遠遠沒有結束。


Video
ID                                       : 2
Format                                   : AVC
Format/Info                              : Advanced Video Codec
Format profile                           : High@L4
Format settings, CABAC                   : Yes
Format settings, ReFrames                : 4 frames
Codec ID                                 : V_MPEG4/ISO/AVC
Duration                                 : 1h 39mn
Bit rate mode                            : Variable
Bit rate                                 : 12.4 Mbps
Maximum bit rate                         : 15.0 Mbps
Width                                    : 1 920 pixels
Height                                   : 1 040 pixels
Display aspect ratio                     : 1.85:1
Frame rate mode                          : Constant
Frame rate                               : 23.976 (24000/1001) fps
Color space                              : YUV
Chroma subsampling                       : 4:2:0
Bit depth                                : 8 bits
Scan type                                : Progressive
Bits/(Pixel*Frame)                       : 0.260
Stream size                              : 8.61 GiB (95%)
Writing library                          : x264 core 148 r2623 d5b2374
Encoding settings                        : cabac=1 / ref=4 / deblock=1:-1:-1 / analyse=0x3:0x133 / me=umh / subme=9 / psy=1 / psy_rd=1.00:0.15 / mixed_ref=1 / me_range=24 / chroma_me=1 / trellis=2 / 8x8dct=1 / cqm=0 / deadzone=21,11 / fast_pskip=1 / chroma_qp_offset=-3 / threads=32 / lookahead_threads=5 / sliced_threads=0 / nr=150 / decimate=1 / interlaced=0 / bluray_compat=0 / constrained_intra=0 / bframes=8 / b_pyramid=2 / b_adapt=2 / b_bias=0 / direct=3 / weightb=1 / open_gop=0 / weightp=2 / keyint=120 / keyint_min=61 / scenecut=0 / intra_refresh=0 / rc_lookahead=120 / rc=crf / mbtree=1 / crf=18.0 / qcomp=0.60 / qpmin=0 / qpmax=69 / qpstep=4 / vbv_maxrate=15000 / vbv_bufsize=31250 / crf_max=0.0 / nal_hrd=vbr / filler=0 / ip_ratio=1.40 / aq=3:1.00
Default                                  : Yes
Forced                                   : No
Color range                              : Limited
Color primaries                          : BT.709
Transfer characteristics                 : BT.709
Matrix coefficients                      : BT.709

Audio
ID                                       : 1
Format                                   : E-AC-3
Format/Info                              : Audio Coding 3
Format settings, Endianness              : Big
Codec ID                                 : A_EAC3
Duration                                 : 1h 39mn
Bit rate mode                            : Constant
Bit rate                                 : 640 Kbps
Channel(s)                               : 6 channels
Channel positions                        : Front: L C R, Side: L R, LFE
Sampling rate                            : 48.0 KHz
Frame rate                               : 187.500 fps (256 spf)
Compression mode                         : Lossy
Stream size                              : 454 MiB (5%)
Language                                 : English
Default                                  : Yes
Forced                                   : No




1 個附件 售價 大小 下載 時間

What.About.Bob.1991.1080p.WEBRip.DD5.1.x264-TrollHD[btbtt.co].torrent 0 金币 91.21K 760 次 5月前

#1樓
发帖時間:2017-01-11 14:36:50   |   回複數:4
ditintie
武林高手
好笑, funny...
5月前 #2樓
911degrees
一代宗師
非常感謝,謝謝分享
5月前 #3樓
liyouchai
超凡入聖№
謝謝樓主分享資源
5月前 #4樓
blue23
超凡入聖№
感謝樓主分享
5月前 #5樓
遊客組