aoloffline
版主

[更 早] [歐美] [動畫] [WEB-1080P] [BT下載]三骑士 The.Three.Caballeros.1944.1080p.WEBRip.DD5.1.x264-TrollHD 7.79GB

-->

◎譯  名 三騎士

◎片  名 The Three Caballeros

◎年  代 1944

◎國  家 美國

◎类  别 动画/家庭/奇幻/音樂

◎語  言 英語/西班牙語/葡萄牙語

◎上映日期 1944-12-21(墨西哥) (premiere)/1945-02-03(美国)

◎IMDb评分  6.5/10 from 8,859 users

◎IMDb链接  http://www.imdb.com/title/tt0038166/

◎豆瓣评分 8.0/10 from 557 users

◎豆瓣鏈接 https://movie.douban.com/subject/1292593/

◎BT之家整理  

◎片  長 72分鍾

◎导  演 Norman Ferguson

◎主  演 Aurora Miranda

      Carmen Molina

      Dora Luz

      斯特灵·哈洛威 Sterling Holloway

      克拉伦斯·纳什 Clarence Nash

      Joaquin Garay

      José Oliviera

      Frank Graham

      Fred Shields

      Nestor Amarale

      Almirante

      Trío Calaveras

      Trío Ascencio del Río

      Pinto Colvig


◎簡  介


  碩大的包裹,便簽上寫著“祝唐老鴨13號星期五快樂,他那美洲的朋友”。唐老鴨見此非常快樂,連忙拆開禮物。裏面是一整套放映設備以及錄影帶。他安裝完畢,靜下心觀看,哈維博士爲他講述了3個禽類親戚的故事:《怕冷的企鵝》住在南極的企鵝巴比極度怕冷,暖爐是他最愛的夥伴。爲了尋找溫暖,他開始了一段偉大航程;《高卓小飛騾》烏拉圭甯靜早晨,少年道奇多外出打獵,卻在崇山峻嶺間看到一只會飛的騾子。他要帶著飛騾參加一場賽騾比賽,一戰成名;《巴西與墨西哥之巡禮》跟隨綠色鹦鹉的腳步,唐老鴨來到熱情狂熱的巴西和墨西哥,獨有的風俗以及各種有趣的知識,此外還少不了充滿激情的舞蹈。

  來自南美充滿知識性和趣味性的祝福,生日快樂唐老鴨!


◎獲獎情況


  第18届奥斯卡金像奖  (1946)

  最佳录音(提名) C.O. Slyfield

  歌舞片最佳配乐(提名) Charles Wolcott / Paul J. Smith / Edward H. Plumb


Video
ID                                       : 2
Format                                   : AVC
Format/Info                              : Advanced Video Codec
Format profile                           : [email protected]
Format settings, CABAC                   : Yes
Format settings, ReFrames                : 4 frames
Codec ID                                 : V_MPEG4/ISO/AVC
Duration                                 : 1h 11mn
Bit rate mode                            : Variable
Bit rate                                 : 15.0 Mbps
Width                                    : 1 920 pixels
Height                                   : 1 080 pixels
Display aspect ratio                     : 16:9
Frame rate mode                          : Constant
Frame rate                               : 23.976 (24000/1001) fps
Color space                              : YUV
Chroma subsampling                       : 4:2:0
Bit depth                                : 8 bits
Scan type                                : Progressive
Bits/(Pixel*Frame)                       : 0.302
Stream size                              : 7.46 GiB (96%)
Writing library                          : x264 core 148 r2623 d5b2374
Encoding settings                        : cabac=1 / ref=4 / deblock=1:-1:-1 / analyse=0x3:0x133 / me=umh / subme=9 / psy=1 / psy_rd=1.00:0.15 / mixed_ref=1 / me_range=24 / chroma_me=1 / trellis=2 / 8x8dct=1 / cqm=0 / deadzone=21,11 / fast_pskip=1 / chroma_qp_offset=-3 / threads=34 / lookahead_threads=5 / sliced_threads=0 / nr=150 / decimate=1 / interlaced=0 / bluray_compat=0 / constrained_intra=0 / bframes=8 / b_pyramid=2 / b_adapt=2 / b_bias=0 / direct=3 / weightb=1 / open_gop=0 / weightp=2 / keyint=120 / keyint_min=61 / scenecut=0 / intra_refresh=0 / rc_lookahead=120 / rc=crf / mbtree=1 / crf=18.0 / qcomp=0.60 / qpmin=0 / qpmax=69 / qpstep=4 / vbv_maxrate=15000 / vbv_bufsize=31250 / crf_max=0.0 / nal_hrd=vbr / filler=0 / ip_ratio=1.40 / aq=3:1.00
Default                                  : Yes
Forced                                   : No
Color range                              : Limited
Color primaries                          : BT.709
Transfer characteristics                 : BT.709
Matrix coefficients                      : BT.709

Audio
ID                                       : 1
Format                                   : E-AC-3
Format/Info                              : Audio Coding 3
Format settings, Endianness              : Big
Codec ID                                 : A_EAC3
Duration                                 : 1h 11mn
Bit rate mode                            : Constant
Bit rate                                 : 640 Kbps
Channel(s)                               : 6 channels
Channel positions                        : Front: L C R, Side: L R, LFE
Sampling rate                            : 48.0 KHz
Frame rate                               : 187.500 fps (256 spf)
Compression mode                         : Lossy
Stream size                              : 328 MiB (4%)
Language                                 : English
Default                                  : Yes
Forced                                   : No

Text
ID                                       : 3
Format                                   : UTF-8
Codec ID                                 : S_TEXT/UTF8
Codec ID/Info                            : UTF-8 Plain Text
Duration                                 : 1h 10mn
Bit rate                                 : 50 bps
Count of elements                        : 1047
Stream size                              : 26.4 KiB (0%)
Default                                  : Yes
Forced                                   : No





1 個附件 售價 大小 下載 時間

The.Three.Caballeros.1944.1080p.WEBRip.DD5.1.x264-TrollHD .torrent 0 金币 78.49K 494 次 4月前

#1樓
請幫忙分享到: | Twitter | Google+ | 微博 | 更多… 发帖時間:2017-01-11 14:19:27   |   回複數:3
911degrees
一代宗師
非常感謝,謝謝分享
4月前 #2樓
liyouchai
超凡入聖№
謝謝樓主分享資源
4月前 #3樓
blue23
超凡入聖№
感謝樓主分享
4月前 #4樓
遊客組