aoloffline
版主

[2010] [歐美] [恐怖] [BD-1080P] [BT下載]哭泣的狼孩 The.Boy.Who.Cried.Werewolf.2010.1080p.WEBRip.DD2.0.x264-TrollHD 7.2G

-->

◎譯  名 哭泣的狼孩

◎片  名 The Boy Who Cried Werewolf

◎年  代 2010

◎國  家 USA

◎類  別 恐怖

◎語  言 English

◎IMDb评分  6.3/10 from 1,948 users

◎IMDb链接  http://www.imdb.com/title/tt1451423/

◎豆瓣评分 6.4/10 from 78 users

◎豆瓣鏈接 https://movie.douban.com/subject/3788570/

◎BT之家整理  

◎导  演 Eric Bross

◎主  演 Brooke Shields

      Victoria Justice

      Brooke D'Orsay


◎簡  介


  这部電影与1973年的電影《The Boy Who Cried Werewolf》有着相同的名字。该剧拍摄于加拿大温哥华的不列颠哥伦比亚省。

  電影中主要讲述的是Victoria Justice扮演的Jordan Sands在一个神秘的城堡中神奇般地变成了狼人之后发生的一系列事件。


Video
ID                                       : 2
Format                                   : AVC
Format/Info                              : Advanced Video Codec
Format profile                           : [email protected]
Format settings, CABAC                   : Yes
Format settings, ReFrames                : 4 frames
Codec ID                                 : V_MPEG4/ISO/AVC
Duration                                 : 1h 26mn
Bit rate mode                            : Variable
Bit rate                                 : 11.7 Mbps
Maximum bit rate                         : 15.0 Mbps
Width                                    : 1 920 pixels
Height                                   : 1 080 pixels
Display aspect ratio                     : 16:9
Frame rate mode                          : Constant
Frame rate                               : 23.976 (24000/1001) fps
Color space                              : YUV
Chroma subsampling                       : 4:2:0
Bit depth                                : 8 bits
Scan type                                : Progressive
Bits/(Pixel*Frame)                       : 0.236
Stream size                              : 7.07 GiB (98%)
Writing library                          : x264 core 148 r2623 d5b2374
Encoding settings                        : cabac=1 / ref=4 / deblock=1:-1:-1 / analyse=0x3:0x133 / me=umh / subme=9 / psy=1 / psy_rd=1.00:0.15 / mixed_ref=1 / me_range=24 / chroma_me=1 / trellis=2 / 8x8dct=1 / cqm=0 / deadzone=21,11 / fast_pskip=1 / chroma_qp_offset=-3 / threads=34 / lookahead_threads=5 / sliced_threads=0 / nr=150 / decimate=1 / interlaced=0 / bluray_compat=0 / constrained_intra=0 / bframes=8 / b_pyramid=2 / b_adapt=2 / b_bias=0 / direct=3 / weightb=1 / open_gop=0 / weightp=2 / keyint=120 / keyint_min=61 / scenecut=0 / intra_refresh=0 / rc_lookahead=120 / rc=crf / mbtree=1 / crf=18.0 / qcomp=0.60 / qpmin=0 / qpmax=69 / qpstep=4 / vbv_maxrate=15000 / vbv_bufsize=31250 / crf_max=0.0 / nal_hrd=vbr / filler=0 / ip_ratio=1.40 / aq=3:1.00
Default                                  : Yes
Forced                                   : No
Color range                              : Limited
Color primaries                          : BT.709
Transfer characteristics                 : BT.709
Matrix coefficients                      : BT.709

Audio
ID                                       : 1
Format                                   : E-AC-3
Format/Info                              : Audio Coding 3
Format settings, Endianness              : Big
Codec ID                                 : A_EAC3
Duration                                 : 1h 26mn
Bit rate mode                            : Constant
Bit rate                                 : 224 Kbps
Channel(s)                               : 2 channels
Channel positions                        : Front: L R
Sampling rate                            : 48.0 KHz
Frame rate                               : 187.500 fps (256 spf)
Compression mode                         : Lossy
Stream size                              : 138 MiB (2%)
Language                                 : English
Default                                  : Yes
Forced                                   : No

Text
ID                                       : 3
Format                                   : UTF-8
Codec ID                                 : S_TEXT/UTF8
Codec ID/Info                            : UTF-8 Plain Text
Duration                                 : 1h 24mn
Bit rate                                 : 68 bps
Count of elements                        : 2142
Stream size                              : 42.7 KiB (0%)
Default                                  : Yes
Forced                                   : No





1 個附件 售價 大小 下載 時間

The.Boy.Who.Cried.Werewolf.2010.1080p.WEBRip.DD2.0.x264-TrollHD[btbtt.co].torrent 0 金币 72.75K 420 次 13天前

#1樓
发帖時間:2017-01-11 14:00:25   |   回複數:4
fulong1960
江湖小蝦
感謝樓主分享.............
12天前 #2樓
911degrees
一代宗師
非常感謝,謝謝分享
12天前 #3樓
liyouchai
一代宗師
謝謝樓主分享資源
12天前 #4樓
blue23
超凡入聖№
感謝樓主分享
11天前 #5樓
遊客組