aoloffline
版主

[2006] [歐美] [動作] [BD-1080P] [BT下载]玩偶屋 The.Big.Doll.House.1971.1080p.WEBRip.DD2.0.x264-TrollHD 9.93GB

-->


◎譯  名 玩偶屋

◎片  名 The Big Doll House

◎年  代 1971

◎國  家 美國/菲律賓

◎類  別 動作/劇情

◎語  言 英語

◎上映日期 1971-07-02

◎IMDb评分  6.0/10 from 1,581 users

◎IMDb链接  http://www.imdb.com/title/tt0066830/

◎豆瓣评分 5.7/10 from 35 users

◎豆瓣鏈接 https://movie.douban.com/subject/1292771/

◎BT之家整理  

◎片  长 USA: 95 分钟

◎导  演 Jack Hill

◎主  演 Judy Brown

      Pam Grier

      Pat Woodel

      Roberta Collins


◎簡  介


  红发女Collier(Judy Brown饰)因谋杀指控被判在菲律宾监狱服20年劳役,她的狱友都是美丽性感而凶悍的年轻姑娘,强壮的黑人女子Grier是她们的老大。Grier想把Collier作为自己的新宠物,Collier不惧淫威并很快与凶悍却富于正义感的Bodine(Pat Woodel饰)成为朋友。独来独往的金发女Alcott实际上很有心计,一天在劳动时她成功挑衅Grier并将其制服,成了牢房的新老大。向监狱犯人兜售商品的Harry和Fred是两个小色狼,Harry垂涎Grier的美色,并答应助其越狱。一天变态女警官把Collier带走并打算刑讯逼供,众狱友也被锁进蒸气室,被孤立的Grier也想助一臂之力,却被曾经的跟班割喉惨死。时间紧迫,Bodine和Alcott等人开始了营救Collier并越狱的行动……


Video
ID                                       : 2
Format                                   : AVC
Format/Info                              : Advanced Video Codec
Format profile                           : [email protected]
Format settings, CABAC                   : Yes
Format settings, ReFrames                : 4 frames
Codec ID                                 : V_MPEG4/ISO/AVC
Duration                                 : 1h 34mn
Bit rate mode                            : Variable
Bit rate                                 : 14.7 Mbps
Maximum bit rate                         : 15.0 Mbps
Width                                    : 1 920 pixels
Height                                   : 1 080 pixels
Display aspect ratio                     : 16:9
Frame rate mode                          : Constant
Frame rate                               : 29.970 (30000/1001) fps
Color space                              : YUV
Chroma subsampling                       : 4:2:0
Bit depth                                : 8 bits
Scan type                                : Progressive
Bits/(Pixel*Frame)                       : 0.237
Stream size                              : 9.78 GiB (98%)
Writing library                          : x264 core 148 r2623 d5b2374
Encoding settings                        : cabac=1 / ref=4 / deblock=1:-1:-1 / analyse=0x3:0x133 / me=umh / subme=9 / psy=1 / psy_rd=1.00:0.15 / mixed_ref=1 / me_range=24 / chroma_me=1 / trellis=2 / 8x8dct=1 / cqm=0 / deadzone=21,11 / fast_pskip=1 / chroma_qp_offset=-3 / threads=34 / lookahead_threads=5 / sliced_threads=0 / nr=150 / decimate=1 / interlaced=0 / bluray_compat=0 / constrained_intra=0 / bframes=8 / b_pyramid=2 / b_adapt=2 / b_bias=0 / direct=3 / weightb=1 / open_gop=0 / weightp=2 / keyint=150 / keyint_min=76 / scenecut=0 / intra_refresh=0 / rc_lookahead=150 / rc=crf / mbtree=1 / crf=18.0 / qcomp=0.60 / qpmin=0 / qpmax=69 / qpstep=4 / vbv_maxrate=15000 / vbv_bufsize=31250 / crf_max=0.0 / nal_hrd=vbr / filler=0 / ip_ratio=1.40 / aq=3:1.00
Default                                  : Yes
Forced                                   : No
Color range                              : Limited
Color primaries                          : BT.709
Transfer characteristics                 : BT.709
Matrix coefficients                      : BT.709

Audio
ID                                       : 1
Format                                   : E-AC-3
Format/Info                              : Audio Coding 3
Format settings, Endianness              : Big
Codec ID                                 : A_EAC3
Duration                                 : 1h 34mn
Bit rate mode                            : Constant
Bit rate                                 : 224 Kbps
Channel(s)                               : 2 channels
Channel positions                        : Front: L R
Sampling rate                            : 48.0 KHz
Frame rate                               : 187.500 fps (256 spf)
Compression mode                         : Lossy
Stream size                              : 152 MiB (1%)
Language                                 : English
Default                                  : Yes
Forced                                   : No

Text
ID                                       : 3
Format                                   : UTF-8
Codec ID                                 : S_TEXT/UTF8
Codec ID/Info                            : UTF-8 Plain Text
Duration                                 : 1h 34mn
Bit rate                                 : 47 bps
Count of elements                        : 1254
Stream size                              : 33.0 KiB (0%)
Default                                  : Yes
Forced                                   : No




#1樓
發帖時間:2017-01-11 13:02:05   |   回複數:4
szh53
武林高手
怎麽沒種子
13天前 #2樓
911degrees
一代宗師
非常感謝,謝謝分享
12天前 #3樓
liyouchai
一代宗師
謝謝樓主分享資源
12天前 #4樓
blue23
超凡入聖№
感謝樓主分享
11天前 #5樓
遊客組