aoloffline
版主

[2006] [歐美] [喜劇] [BD-1080P] [BT下載]少女的异想日记 Read.It.and.Weep.2006.1080p.WEBRip.DD5.1.x264-TrollHD 6.6GB

-->

◎譯  名 少女的異想日記/意外成名之後

◎片  名 Read It and Weep

◎年  代 2006

◎國  家 美國

◎類  別 喜劇/家庭

◎語  言 英語

◎上映日期 2006-07-21

◎IMDb评分  5.7/10 from 4,085 users

◎IMDb链接  http://www.imdb.com/title/tt0494716/

◎豆瓣评分 6.0/10 from 598 users

◎豆瓣鏈接 https://movie.douban.com/subject/1961866/

◎BT之家整理 http://www.btbtt.co 

◎片  長 84分鍾

◎导  演 保罗·霍恩 Paul Hoen

◎主  演 凯·帕娜贝克 Kay Panabaker

      丹妮尔·帕娜贝克 Danielle Panabaker

      Alexandra Krosney


◎簡  介


  杰米(凯·帕娜贝克 Kay Panabaker 饰)是一名十分普通的高中生,默默无闻的她唯一的乐趣就是写日记,她将自己的现实生活掺杂了个人幻想写进了日记里,在那里,她不再是平凡的杰米,而是校园中人见人爱的女王伊莎贝拉(丹妮尔·帕娜贝克 Danielle Panabaker 饰)。

  一次意外中,傑米將自己的日記本錯當成了作文交給了老師,老師擅自將日記寄給了出版社參加比賽,沒想到,傑米成爲了比賽中最大的贏家。突如其來的名聲給傑米帶來了榮耀,卻也造成了麻煩,她和家人朋友之間的關系開始疏遠。最糟糕的是,傑米漸漸發現,伊莎貝拉這個虛構的形象開始逐漸的入侵到了她的生活之中。


Video
ID                                       : 2
Format                                   : AVC
Format/Info                              : Advanced Video Codec
Format profile                           : High@L4
Format settings, CABAC                   : Yes
Format settings, ReFrames                : 4 frames
Codec ID                                 : V_MPEG4/ISO/AVC
Duration                                 : 1h 24mn
Bit rate mode                            : Variable
Bit rate                                 : 11.0 Mbps
Maximum bit rate                         : 15.0 Mbps
Width                                    : 1 920 pixels
Height                                   : 1 080 pixels
Display aspect ratio                     : 16:9
Frame rate mode                          : Constant
Frame rate                               : 23.976 (24000/1001) fps
Color space                              : YUV
Chroma subsampling                       : 4:2:0
Bit depth                                : 8 bits
Scan type                                : Progressive
Bits/(Pixel*Frame)                       : 0.221
Stream size                              : 6.48 GiB (98%)
Writing library                          : x264 core 148 r2623 d5b2374
Encoding settings                        : cabac=1 / ref=4 / deblock=1:-1:-1 / analyse=0x3:0x133 / me=umh / subme=9 / psy=1 / psy_rd=1.00:0.15 / mixed_ref=1 / me_range=24 / chroma_me=1 / trellis=2 / 8x8dct=1 / cqm=0 / deadzone=21,11 / fast_pskip=1 / chroma_qp_offset=-3 / threads=34 / lookahead_threads=5 / sliced_threads=0 / nr=150 / decimate=1 / interlaced=0 / bluray_compat=0 / constrained_intra=0 / bframes=8 / b_pyramid=2 / b_adapt=2 / b_bias=0 / direct=3 / weightb=1 / open_gop=0 / weightp=2 / keyint=120 / keyint_min=61 / scenecut=0 / intra_refresh=0 / rc_lookahead=120 / rc=crf / mbtree=1 / crf=18.0 / qcomp=0.60 / qpmin=0 / qpmax=69 / qpstep=4 / vbv_maxrate=15000 / vbv_bufsize=31250 / crf_max=0.0 / nal_hrd=vbr / filler=0 / ip_ratio=1.40 / aq=3:1.00
Default                                  : Yes
Forced                                   : No
Color range                              : Limited
Color primaries                          : BT.709
Transfer characteristics                 : BT.709
Matrix coefficients                      : BT.709

Audio
ID                                       : 1
Format                                   : E-AC-3
Format/Info                              : Audio Coding 3
Format settings, Endianness              : Big
Codec ID                                 : A_EAC3
Duration                                 : 1h 24mn
Bit rate mode                            : Constant
Bit rate                                 : 224 Kbps
Channel(s)                               : 2 channels
Channel positions                        : Front: L R
Sampling rate                            : 48.0 KHz
Frame rate                               : 187.500 fps (256 spf)
Compression mode                         : Lossy
Stream size                              : 135 MiB (2%)
Language                                 : English
Default                                  : Yes
Forced                                   : No

Text
ID                                       : 3
Format                                   : UTF-8
Codec ID                                 : S_TEXT/UTF8
Codec ID/Info                            : UTF-8 Plain Text
Duration                                 : 1h 23mn
Bit rate                                 : 79 bps
Count of elements                        : 1928
Stream size                              : 48.9 KiB (0%)
Default                                  : Yes
Forced                                   : No





1 個附件 售價 大小 下載 時間

Read.It.and.Weep.2006.1080p.WEBRip.DD5.1.x264-TrollHD[btbtt.co].torrent 0 金币 66.72K 684 次 5月前

#1樓
发帖時間:2017-01-11 12:59:36   |   回複數:3
911degrees
一代宗師
非常感謝,謝謝分享
5月前 #2樓
liyouchai
超凡入聖№
謝謝樓主分享資源
5月前 #3樓
blue23
超凡入聖№
感謝樓主分享
5月前 #4樓
遊客組