aoloffline
版主

[2009] [歐美] [喜劇] [BD-1080P] [BT下載]公主保护计划 Princess.Protection.Program.2009.1080p.WEBRip.DD5.1.x264-TrollHD 9.

-->


◎譯  名 公主保護計劃

◎片  名 Princess Protection Program

◎年  代 2009

◎國  家 美國

◎類  別 劇情/喜劇/家庭/兒童

◎語  言 英語

◎上映日期 2009-06-26

◎IMDb评分  5.6/10 from 15,146 users

◎IMDb链接  http://www.imdb.com/title/tt1196339/

◎豆瓣评分 6.3/10 from 10,441 users

◎豆瓣鏈接 https://movie.douban.com/subject/3101989/

◎BT之家整理  

◎片  長 90分鍾

◎导  演 Allison Liddi

◎主  演 赛琳娜·戈麦斯 Selena Gomez

      黛米·洛瓦托 Demi Lovato

      尼可拉斯·博朗 Nicholas Braun

      杰米·钟 Jamie Chung

      莫莉·哈根 Molly Hagan


◎簡  介


  本片由美国当红少女明星主演的最新迪斯尼原创电视電影。

  卡特(赛琳娜·戈麦斯 Selena Gomez 饰)的爸爸梅森是一名“公主保护计划 ”的特工少将。收到消息要保护一个名为克斯塔鲁那的小国的公主罗萨琳娜(黛米·洛瓦托 Demi Lovato 饰)。邪恶的凯恩将军在她的加冕仪式排练时,占领了克斯塔鲁那。梅森受公主的母亲索菲亚所托,把公主带走,而索菲亚自己却留下做人质。在经过公主保护计划指挥中心的改造后,梅森把公主带到了美国的一个乡下小镇,改名为罗西,并以卡特表姐的身份在那里生活。这一次,公主要去学会成为一个正常的美国青少年,等待合适的机会重返自己的国家打败夺权者继承自己的王位。

  在羅薩琳娜和卡特之間將會上演什麽樣的故事?羅薩琳娜最後是否能夠救出母親,奪回繼承權?



Video
ID                                       : 2
Format                                   : AVC
Format/Info                              : Advanced Video Codec
Format profile                           : [email protected]
Format settings, CABAC                   : Yes
Format settings, ReFrames                : 4 frames
Codec ID                                 : V_MPEG4/ISO/AVC
Duration                                 : 1h 29mn
Bit rate mode                            : Variable
Bit rate                                 : 14.1 Mbps
Maximum bit rate                         : 15.0 Mbps
Width                                    : 1 920 pixels
Height                                   : 1 080 pixels
Display aspect ratio                     : 16:9
Frame rate mode                          : Constant
Frame rate                               : 23.976 (24000/1001) fps
Color space                              : YUV
Chroma subsampling                       : 4:2:0
Bit depth                                : 8 bits
Scan type                                : Progressive
Bits/(Pixel*Frame)                       : 0.285
Stream size                              : 8.83 GiB (96%)
Writing library                          : x264 core 148 r2623 d5b2374
Encoding settings                        : cabac=1 / ref=4 / deblock=1:-1:-1 / analyse=0x3:0x133 / me=umh / subme=9 / psy=1 / psy_rd=1.00:0.15 / mixed_ref=1 / me_range=24 / chroma_me=1 / trellis=2 / 8x8dct=1 / cqm=0 / deadzone=21,11 / fast_pskip=1 / chroma_qp_offset=-3 / threads=34 / lookahead_threads=5 / sliced_threads=0 / nr=150 / decimate=1 / interlaced=0 / bluray_compat=0 / constrained_intra=0 / bframes=8 / b_pyramid=2 / b_adapt=2 / b_bias=0 / direct=3 / weightb=1 / open_gop=0 / weightp=2 / keyint=120 / keyint_min=61 / scenecut=0 / intra_refresh=0 / rc_lookahead=120 / rc=crf / mbtree=1 / crf=18.0 / qcomp=0.60 / qpmin=0 / qpmax=69 / qpstep=4 / vbv_maxrate=15000 / vbv_bufsize=31250 / crf_max=0.0 / nal_hrd=vbr / filler=0 / ip_ratio=1.40 / aq=3:1.00
Default                                  : Yes
Forced                                   : No
Color range                              : Limited
Color primaries                          : BT.709
Transfer characteristics                 : BT.709
Matrix coefficients                      : BT.709

Audio
ID                                       : 1
Format                                   : E-AC-3
Format/Info                              : Audio Coding 3
Format settings, Endianness              : Big
Codec ID                                 : A_EAC3
Duration                                 : 1h 29mn
Bit rate mode                            : Constant
Bit rate                                 : 640 Kbps
Channel(s)                               : 6 channels
Channel positions                        : Front: L C R, Side: L R, LFE
Sampling rate                            : 48.0 KHz
Frame rate                               : 187.500 fps (256 spf)
Compression mode                         : Lossy
Stream size                              : 409 MiB (4%)
Language                                 : English
Default                                  : Yes
Forced                                   : No

Text
ID                                       : 3
Format                                   : UTF-8
Codec ID                                 : S_TEXT/UTF8
Codec ID/Info                            : UTF-8 Plain Text
Duration                                 : 1h 27mn
Bit rate                                 : 68 bps
Count of elements                        : 1428
Stream size                              : 44.0 KiB (0%)
Default                                  : Yes
Forced                                   : No





1 個附件 售價 大小 下載 時間

Princess.Protection.Program.2009.1080p.WEBRip.DD5.1.x264-TrollHD[btbtt.co].torrent 0 金币 93.00K 747 次 4月前

#1樓
請幫忙分享到: | Twitter | Google+ | 微博 | 更多… 发帖時間:2017-01-11 12:57:22   |   回複數:3
911degrees
一代宗師
非常感謝,謝謝分享
4月前 #2樓
liyouchai
超凡入聖№
謝謝樓主分享資源
4月前 #3樓
blue23
超凡入聖№
感謝樓主分享
4月前 #4樓
遊客組