aoloffline
版主

[2011] [歐美] [喜劇] [WEB-1080P] [BT下載]怪诞俏女郎/千金奇缘 Geek.Charming.2011.1080p.WEBRip.DD5.1.x264-TrollHD 10GB

-->

◎譯  名 怪誕俏女郎/千金奇緣

◎片  名 Geek Charming

◎年  代 2011

◎國  家 美國

◎類  別 喜劇

◎語  言 英語

◎上映日期 2011-11-11

◎IMDb评分  6.5/10 from 8,562 users

◎IMDb链接  http://www.imdb.com/title/tt1835977/

◎豆瓣评分 6.2/10 from 504 users

◎豆瓣鏈接 https://movie.douban.com/subject/6876002/

◎BT之家整理 http://www.btbtt.co 

◎导  演 Jeffrey Hornaday

◎主  演 萨拉·海蓝德 Sarah Hyland

      马特·普罗考普 Matt Prokop

      Jordan Nichols


◎簡  介


  迪伦(萨拉·海蓝德 Sarah Hyland 饰)是含着金汤匙出生的千金大小姐,肤白貌美活力四射的她自然成为了校园中的风云人物,有英俊的男友和数不清的朋友们作伴。校园中正在进行校园女王的选举,迪伦踌躇满志的报名参加,并自信一定能够获得最后的胜利。

  乔什(马特·普罗考普 Matt Prokop 饰)是校园電影社的社长,沉默寡言其貌不扬的他被公认为学院里的怪咖。乔什正在拍摄一部以学校为背景的纪录片,这引起了迪伦的兴趣,她决定成为这部纪录片的女主角,以增加自己在选举中的胜算。就这样,万千宠爱于一身的大小姐和默默无闻的怪咖男走到了一起,碰擦出了闪亮的火花。


Video
ID                                       : 3
Format                                   : AVC
Format/Info                              : Advanced Video Codec
Format profile                           : High@L4
Format settings, CABAC                   : Yes
Format settings, ReFrames                : 4 frames
Codec ID                                 : V_MPEG4/ISO/AVC
Duration                                 : 1h 37mn
Bit rate mode                            : Variable
Bit rate                                 : 14.2 Mbps
Maximum bit rate                         : 15.0 Mbps
Width                                    : 1 920 pixels
Height                                   : 1 080 pixels
Display aspect ratio                     : 16:9
Frame rate mode                          : Constant
Frame rate                               : 23.976 (24000/1001) fps
Color space                              : YUV
Chroma subsampling                       : 4:2:0
Bit depth                                : 8 bits
Scan type                                : Progressive
Bits/(Pixel*Frame)                       : 0.285
Stream size                              : 9.67 GiB (96%)
Writing library                          : x264 core 148 r2623 d5b2374
Encoding settings                        : cabac=1 / ref=4 / deblock=1:-1:-1 / analyse=0x3:0x133 / me=umh / subme=9 / psy=1 / psy_rd=1.00:0.15 / mixed_ref=1 / me_range=24 / chroma_me=1 / trellis=2 / 8x8dct=1 / cqm=0 / deadzone=21,11 / fast_pskip=1 / chroma_qp_offset=-3 / threads=34 / lookahead_threads=5 / sliced_threads=0 / nr=150 / decimate=1 / interlaced=0 / bluray_compat=0 / constrained_intra=0 / bframes=8 / b_pyramid=2 / b_adapt=2 / b_bias=0 / direct=3 / weightb=1 / open_gop=0 / weightp=2 / keyint=120 / keyint_min=61 / scenecut=0 / intra_refresh=0 / rc_lookahead=120 / rc=crf / mbtree=1 / crf=18.0 / qcomp=0.60 / qpmin=0 / qpmax=69 / qpstep=4 / vbv_maxrate=15000 / vbv_bufsize=31250 / crf_max=0.0 / nal_hrd=vbr / filler=0 / ip_ratio=1.40 / aq=3:1.00
Default                                  : Yes
Forced                                   : No
Color range                              : Limited
Color primaries                          : BT.709
Transfer characteristics                 : BT.709
Matrix coefficients                      : BT.709

Audio
ID                                       : 2
Format                                   : E-AC-3
Format/Info                              : Audio Coding 3
Format settings, Endianness              : Big
Codec ID                                 : A_EAC3
Duration                                 : 1h 37mn
Bit rate mode                            : Constant
Bit rate                                 : 640 Kbps
Channel(s)                               : 6 channels
Channel positions                        : Front: L C R, Side: L R, LFE
Sampling rate                            : 48.0 KHz
Frame rate                               : 187.500 fps (256 spf)
Compression mode                         : Lossy
Stream size                              : 448 MiB (4%)
Language                                 : English
Default                                  : Yes
Forced                                   : No

Text
ID                                       : 1
Format                                   : UTF-8
Codec ID                                 : S_TEXT/UTF8
Codec ID/Info                            : UTF-8 Plain Text
Duration                                 : 1h 37mn
Bit rate                                 : 73 bps
Count of elements                        : 1960
Stream size                              : 52.5 KiB (0%)
Default                                  : Yes
Forced                                   : No





1 個附件 售價 大小 下載 時間

Geek.Charming.2011.1080p.WEBRip.DD5.1.x264-TrollHD[btbtt.co].torrent 0 金币 51.15K 814 次 6月前

#1樓
发帖時間:2017-01-11 09:55:33   |   回複數:3
911degrees
一代宗師
非常感謝,謝謝分享
6月前 #2樓
liyouchai
超凡入聖№
謝謝樓主分享資源
6月前 #3樓
blue23
超凡入聖№
感謝樓主分享
6月前 #4樓
遊客組