aoloffline
版主

[更 早] [歐美] [犯罪] [WEB-1080P] [BT下載]暴劫梨花/控诉/被告 The.Accused.1988.1080p.WEBRip.DD5.1.x264-TrollHD 11.7GB

-->

◎譯  名 暴劫梨花/控訴/被告

◎片  名 The Accused

◎年  代 1988

◎國  家 加拿大/美國

◎類  別 犯罪/劇情

◎語  言 英語

◎上映日期 1988-10-14

◎IMDb评分  7.1/10 from 24,860 users

◎IMDb链接  http://www.imdb.com/title/tt0094608/

◎豆瓣评分 7.8/10 from 3,106 users

◎豆瓣鏈接 https://movie.douban.com/subject/1291867/

◎類  別 喜劇/家庭/兒童

◎片  长 111 分钟

◎导  演 乔纳森·卡普兰 Jonathan Kaplan

◎主  演 朱迪·福斯特 Jodie Foster

      凯莉·麦吉利斯 Kelly McGillis

      Bernie Coulson


◎簡  介


  一次意外中,莎拉(朱迪·福斯特 Jodie Foster 饰)在酒吧被人强暴,在一旁围观的男人们非但没有出手制止这可怕的暴行,反而幸灾乐祸的加入了其中。事后,身心都受到了巨大创伤的莎拉将这些可恶的男人告上了法庭,没想到社会舆论却反过来指责她的放荡和品行不端。凯瑟琳(凯莉·麦吉利斯 Kelly McGillis 饰)是负责为莎拉辩护的检察官,身为女人,她对莎拉的不幸遭遇有着更深的理解和同情。

  審判的結果公布了,犯下罪行的男人們只被判了九個月的有期徒刑,本用來懲奸除惡的法律最後卻淪爲了犯罪者的保護傘,憤怒的凱瑟琳決不能坐視不管。在凱瑟琳和莎拉的不懈努力下,惡人終于受到了應有的懲罰,兩個女人通過她們的行動,挽回了身爲女人的勇氣和尊嚴。


◎獲獎情況


  第61届奥斯卡金像奖  (1989)

  最佳女主角 朱迪·福斯特



Video
ID                                       : 2
Format                                   : AVC
Format/Info                              : Advanced Video Codec
Format profile                           : [email protected]
Format settings, CABAC                   : Yes
Format settings, ReFrames                : 4 frames
Codec ID                                 : V_MPEG4/ISO/AVC
Duration                                 : 1h 50mn
Bit rate mode                            : Variable
Bit rate                                 : 14.6 Mbps
Maximum bit rate                         : 15.0 Mbps
Width                                    : 1 920 pixels
Height                                   : 1 080 pixels
Display aspect ratio                     : 16:9
Frame rate mode                          : Constant
Frame rate                               : 23.976 (24000/1001) fps
Color space                              : YUV
Chroma subsampling                       : 4:2:0
Bit depth                                : 8 bits
Scan type                                : Progressive
Bits/(Pixel*Frame)                       : 0.293
Stream size                              : 11.2 GiB (96%)
Writing library                          : x264 core 148 r2623 d5b2374
Encoding settings                        : cabac=1 / ref=4 / deblock=1:-1:-1 / analyse=0x3:0x133 / me=umh / subme=9 / psy=1 / psy_rd=1.00:0.15 / mixed_ref=1 / me_range=24 / chroma_me=1 / trellis=2 / 8x8dct=1 / cqm=0 / deadzone=21,11 / fast_pskip=1 / chroma_qp_offset=-3 / threads=34 / lookahead_threads=5 / sliced_threads=0 / nr=150 / decimate=1 / interlaced=0 / bluray_compat=0 / constrained_intra=0 / bframes=8 / b_pyramid=2 / b_adapt=2 / b_bias=0 / direct=3 / weightb=1 / open_gop=0 / weightp=2 / keyint=120 / keyint_min=61 / scenecut=0 / intra_refresh=0 / rc_lookahead=120 / rc=crf / mbtree=1 / crf=18.0 / qcomp=0.60 / qpmin=0 / qpmax=69 / qpstep=4 / vbv_maxrate=15000 / vbv_bufsize=31250 / crf_max=0.0 / nal_hrd=vbr / filler=0 / ip_ratio=1.40 / aq=3:1.00
Default                                  : Yes
Forced                                   : No
Color range                              : Limited
Color primaries                          : BT.709
Transfer characteristics                 : BT.709
Matrix coefficients                      : BT.709

Audio
ID                                       : 1
Format                                   : E-AC-3
Format/Info                              : Audio Coding 3
Format settings, Endianness              : Big
Codec ID                                 : A_EAC3
Duration                                 : 1h 50mn
Bit rate mode                            : Constant
Bit rate                                 : 640 Kbps
Channel(s)                               : 6 channels
Channel positions                        : Front: L C R, Side: L R, LFE
Sampling rate                            : 48.0 KHz
Frame rate                               : 187.500 fps (256 spf)
Compression mode                         : Lossy
Stream size                              : 506 MiB (4%)
Language                                 : English
Default                                  : Yes
Forced                                   : No





1 個附件 售價 大小 下載 時間

The.Accused.1988.1080p.WEBRip.DD5.1.x264-TrollHD[btbtt.co].torrent 0 金币 59.27K 1221 次 1月前

#1樓
发帖時間:2017-01-11 09:46:26   |   回複數:4
911degrees
一代宗師
非常感謝,謝謝分享
1月前 #2樓
tanchoohoon
一派掌門
感謝樓主的無私分享
1月前 #3樓
liyouchai
一代宗師
謝謝樓主分享資源
1月前 #4樓
blue23
超凡入聖№
感謝樓主分享
1月前 #5樓
遊客組