aoloffline
版主

[2010] [歐美] [喜劇] [WEB-1080P] [BT下載]明星之恋/追星族 StarStruck.2010.1080p.WEBRip.DD5.1.x264-TrollHD 8.72GB

-->

◎譯  名 明星之戀/明星之戀/愛上大明星/追星族

◎片  名 Starstruck

◎年  代 2010

◎國  家 美國

◎類  別 喜劇/愛情

◎語  言 英語

◎上映日期 2010-02-14

◎IMDb评分  6.2/10 from 8,440 users

◎IMDb链接  http://www.imdb.com/title/tt1579247/

◎豆瓣评分 6.1/10 from 4,688 users

◎豆瓣鏈接 https://movie.douban.com/subject/4301613/

◎類  別 喜劇/家庭/兒童

◎片  長 82分鍾

◎导  演 Michael Grossman

◎主  演 Sterling Knight

      Christopher Wilde

      Danielle Campbell


◎簡  介


  令从小到大都普通到不能再普通的女生洁西卡(丹妮拉·坎贝尔 Danielle Campbell 饰)难以想象的是,那个令诸多少女尖叫和倾慕好莱坞少女杀手克里斯多弗(斯特林·克耐特 Sterling Knight 饰)此刻正坐在自己的身边。更让洁西卡激动不已的是,他们刚刚结束了一场充满了浪漫和柔情的美好旅程,而两人之后的关系会怎样发展?对此洁西卡的内心充满了期望和憧憬。

  然而,當潔西卡得知克裏斯多弗竟然對他們兩人的關系矢口否認的時候,一切美好的想象都停止了,單純的她陷入了無盡的悲傷和猜疑中去,甚至開始懷疑曾經經曆的美好只是她的幻想。克裏斯多弗爲什麽要這麽做?其中究竟有著怎樣的隱情?潔西卡決定問個水落石出。


Video
ID                                       : 2
Format                                   : AVC
Format/Info                              : Advanced Video Codec
Format profile                           : [email protected]
Format settings, CABAC                   : Yes
Format settings, ReFrames                : 4 frames
Codec ID                                 : V_MPEG4/ISO/AVC
Duration                                 : 1h 24mn
Bit rate mode                            : Variable
Bit rate                                 : 14.1 Mbps
Maximum bit rate                         : 15.0 Mbps
Width                                    : 1 920 pixels
Height                                   : 1 080 pixels
Display aspect ratio                     : 16:9
Frame rate mode                          : Constant
Frame rate                               : 23.976 (24000/1001) fps
Color space                              : YUV
Chroma subsampling                       : 4:2:0
Bit depth                                : 8 bits
Scan type                                : Progressive
Bits/(Pixel*Frame)                       : 0.284
Stream size                              : 8.34 GiB (96%)
Writing library                          : x264 core 148 r2623 d5b2374
Encoding settings                        : cabac=1 / ref=4 / deblock=1:-1:-1 / analyse=0x3:0x133 / me=umh / subme=9 / psy=1 / psy_rd=1.00:0.15 / mixed_ref=1 / me_range=24 / chroma_me=1 / trellis=2 / 8x8dct=1 / cqm=0 / deadzone=21,11 / fast_pskip=1 / chroma_qp_offset=-3 / threads=34 / lookahead_threads=5 / sliced_threads=0 / nr=150 / decimate=1 / interlaced=0 / bluray_compat=0 / constrained_intra=0 / bframes=8 / b_pyramid=2 / b_adapt=2 / b_bias=0 / direct=3 / weightb=1 / open_gop=0 / weightp=2 / keyint=120 / keyint_min=61 / scenecut=0 / intra_refresh=0 / rc_lookahead=120 / rc=crf / mbtree=1 / crf=18.0 / qcomp=0.60 / qpmin=0 / qpmax=69 / qpstep=4 / vbv_maxrate=15000 / vbv_bufsize=31250 / crf_max=0.0 / nal_hrd=vbr / filler=0 / ip_ratio=1.40 / aq=3:1.00
Default                                  : Yes
Forced                                   : No
Color range                              : Limited
Color primaries                          : BT.709
Transfer characteristics                 : BT.709
Matrix coefficients                      : BT.709

Audio
ID                                       : 1
Format                                   : E-AC-3
Format/Info                              : Audio Coding 3
Format settings, Endianness              : Big
Codec ID                                 : A_EAC3
Duration                                 : 1h 24mn
Bit rate mode                            : Constant
Bit rate                                 : 640 Kbps
Channel(s)                               : 6 channels
Channel positions                        : Front: L C R, Side: L R, LFE
Sampling rate                            : 48.0 KHz
Frame rate                               : 187.500 fps (256 spf)
Compression mode                         : Lossy
Stream size                              : 387 MiB (4%)
Language                                 : English
Default                                  : Yes
Forced                                   : No

Text
ID                                       : 3
Format                                   : UTF-8
Codec ID                                 : S_TEXT/UTF8
Codec ID/Info                            : UTF-8 Plain Text
Duration                                 : 1h 24mn
Bit rate                                 : 78 bps
Count of elements                        : 1616
Stream size                              : 48.6 KiB (0%)
Default                                  : Yes
Forced                                   : No





1 個附件 售價 大小 下載 時間

StarStruck.2010.1080p.WEBRip.DD5.1.x264-TrollHD[btbtt.co].torrent 0 金币 87.78K 410 次 3月前

#1樓
請幫忙分享到: | Twitter | Google+ | 微博 | 更多… 发帖時間:2017-01-11 09:44:54   |   回複數:4
911degrees
一代宗師
非常感謝,謝謝分享
3月前 #2樓
tanchoohoon
一派掌門
感謝樓主的無私分享
3月前 #3樓
liyouchai
超凡入聖№
謝謝樓主分享資源
3月前 #4樓
blue23
超凡入聖№
感謝樓主分享
3月前 #5樓
遊客組