aoloffline
版主

[2011] [歐美] [紀錄] [WEB-1080P] [BT下載]中间地带 Somewhere.Between.2011.1080p.WEBRip.DD5.1.x264-TrollHD 7.3GB

-->

◎譯  名 中間地帶

◎片  名 Somewhere Between

◎年  代 2011

◎國  家 美國

◎類  別 劇情

◎語  言 英語

◎IMDb评分  7.8/10 from 374 users

◎IMDb链接  http://imdb.com/title/tt1581845/

◎BT之家整理  

◎片  长 1h 28min

◎导  演 Linda Goldstein Knowlton


◎簡  介


  《中間地帶》講述了感人至深的領養故事,反映了四個中國女孩在美國成長的內心經曆,和一段尋找中國根的旅程。她們生活在美國不同的地方,有著不同的家庭背景,但她們有一個共同點:她們四人都是被從中國收養來的,因爲個人境況與中國的計劃生育政策相抵觸,他們的親生父母無法留住她們。這部影片用個人視角記錄了青少年被收養者的生活。他們因爲獨特的身份而向社會妥協。


Video
ID                                       : 2
Format                                   : AVC
Format/Info                              : Advanced Video Codec
Format profile                           : [email protected]
Format settings, CABAC                   : Yes
Format settings, ReFrames                : 4 frames
Codec ID                                 : V_MPEG4/ISO/AVC
Duration                                 : 1h 28mn
Bit rate mode                            : Variable
Bit rate                                 : 11.6 Mbps
Maximum bit rate                         : 15.0 Mbps
Width                                    : 1 920 pixels
Height                                   : 1 080 pixels
Display aspect ratio                     : 16:9
Frame rate mode                          : Constant
Frame rate                               : 23.976 (24000/1001) fps
Color space                              : YUV
Chroma subsampling                       : 4:2:0
Bit depth                                : 8 bits
Scan type                                : Progressive
Bits/(Pixel*Frame)                       : 0.234
Stream size                              : 7.16 GiB (98%)
Writing library                          : x264 core 148 r2623 d5b2374
Encoding settings                        : cabac=1 / ref=4 / deblock=1:-1:-1 / analyse=0x3:0x133 / me=umh / subme=9 / psy=1 / psy_rd=1.00:0.15 / mixed_ref=1 / me_range=24 / chroma_me=1 / trellis=2 / 8x8dct=1 / cqm=0 / deadzone=21,11 / fast_pskip=1 / chroma_qp_offset=-3 / threads=34 / lookahead_threads=5 / sliced_threads=0 / nr=150 / decimate=1 / interlaced=0 / bluray_compat=0 / constrained_intra=0 / bframes=8 / b_pyramid=2 / b_adapt=2 / b_bias=0 / direct=3 / weightb=1 / open_gop=0 / weightp=2 / keyint=120 / keyint_min=61 / scenecut=0 / intra_refresh=0 / rc_lookahead=120 / rc=crf / mbtree=1 / crf=18.0 / qcomp=0.60 / qpmin=0 / qpmax=69 / qpstep=4 / vbv_maxrate=15000 / vbv_bufsize=31250 / crf_max=0.0 / nal_hrd=vbr / filler=0 / ip_ratio=1.40 / aq=3:1.00
Default                                  : Yes
Forced                                   : No
Color range                              : Limited
Color primaries                          : BT.709
Transfer characteristics                 : BT.709
Matrix coefficients                      : BT.709

Audio
ID                                       : 1
Format                                   : E-AC-3
Format/Info                              : Audio Coding 3
Format settings, Endianness              : Big
Codec ID                                 : A_EAC3
Duration                                 : 1h 28mn
Bit rate mode                            : Constant
Bit rate                                 : 224 Kbps
Channel(s)                               : 2 channels
Channel positions                        : Front: L R
Sampling rate                            : 48.0 KHz
Frame rate                               : 187.500 fps (256 spf)
Compression mode                         : Lossy
Stream size                              : 142 MiB (2%)
Language                                 : English
Default                                  : Yes
Forced                                   : No

Text
ID                                       : 3
Format                                   : UTF-8
Codec ID                                 : S_TEXT/UTF8
Codec ID/Info                            : UTF-8 Plain Text
Duration                                 : 1h 26mn
Bit rate                                 : 71 bps
Count of elements                        : 1325
Stream size                              : 45.5 KiB (0%)
Default                                  : Yes
Forced                                   : No





1 個附件 售價 大小 下載 時間

Somewhere.Between.2011.1080p.WEBRip.DD5.1.x264-TrollHD[btbtt.co].torrent 0 金币 73.66K 1551 次 4月前

#1樓
請幫忙分享到: | Twitter | Google+ | 微博 | 更多… 发帖時間:2017-01-11 09:43:08   |   回複數:3
911degrees
一代宗師
非常感謝,謝謝分享
4月前 #2樓
liyouchai
超凡入聖№
謝謝樓主分享資源
4月前 #3樓
blue23
超凡入聖№
感謝樓主分享
4月前 #4樓
遊客組