aoloffline
版主

[更 早] [歐美] [動畫] [WEB-1080P] [BT下載]辛巴达七海传奇/仙巴之七海游踪 2003.1080p.WEBRip.DD5.1.x264-TrollHD 3.9GB

-->

◎譯  名 辛巴達七海傳奇/仙巴之七海遊蹤/辛巴達航海/辛巴達曆險記

◎片  名 Sinbad: Legend of the Seven Seas

◎年  代 2003

◎國  家 美國

◎類  別 冒險/奇幻/動畫/家庭

◎語  言 英語/粵語/意大利語

◎上映日期 2003-07-02

◎IMDb评分  6.7/10 from 37,499 users

◎IMDb链接  http://www.imdb.com/title/tt0165982/

◎豆瓣评分 7.3/10 from 4,208 users

◎豆瓣鏈接 https://movie.douban.com/subject/1299256/

◎BT之家整理  

◎片  长 Argentina: 88 分钟/Germany: 90 分钟/UK: 85 分钟(cut)/USA: 86 分钟

◎导  演 Patrick Gilmore / Tim Johnson

◎主  演 布拉德·皮特 Brad Pitt

      凯瑟琳·泽塔-琼斯 Catherine Zeta-Jones

      米歇尔·菲佛 Michelle Pfeiffer

      约瑟夫·费因斯 Joseph Fiennes


◎簡  介


  故事从希腊神话的纷争女神艾莉丝(米歇尔·菲佛 Michelle Pfeiffer 配音)开始,她是一个喜欢混乱的女神,她盗走了“和平宝典”,又将这个罪名嫁祸给了辛巴达(布拉德·皮特 Brad Pitt 配音),护送“和平宝典”的王普罗士(约瑟夫·费因斯 Joseph Fiennes 配音)是辛巴达的从小玩得好的朋友,“和平宝典”被窃也使得他的任务失败,无法向自己的王国交代,而王国里的大臣都一致认为是辛巴达盗走了。但普罗士相信辛巴达的清白,他主动提出以自己生命做抵押,让辛巴达追回宝物“和平之书”。普罗士的未婚妻玛琳娜(凯瑟琳·泽塔-琼斯 Catherine Zeta-Jones 配音),为监视辛巴达也偷偷登上了船。辛巴达能否经受考验,为夺回“和平之书”救出朋友的性命?他和玛琳娜又在患难中发生了怎样的爱情?

  影片改編自阿拉伯童話《一千零一夜》中的《辛巴達航海記》。


◎獲獎情況


  第31届动画安妮奖  (2004)

  最佳配乐(提名) 哈里·格雷格森-威廉姆斯

  最佳艺术指导(提名) Seth Engstrom / Raymond Zibach

  最佳角色设计(提名) Carter Goodrich


Video
ID                                       : 2
Format                                   : AVC
Format/Info                              : Advanced Video Codec
Format profile                           : [email protected]
Format settings, CABAC                   : Yes
Format settings, ReFrames                : 4 frames
Codec ID                                 : V_MPEG4/ISO/AVC
Duration                                 : 1h 25mn
Bit rate mode                            : Variable
Bit rate                                 : 5 975 Kbps
Maximum bit rate                         : 15.0 Mbps
Width                                    : 1 920 pixels
Height                                   : 1 080 pixels
Display aspect ratio                     : 16:9
Frame rate mode                          : Constant
Frame rate                               : 23.976 (24000/1001) fps
Color space                              : YUV
Chroma subsampling                       : 4:2:0
Bit depth                                : 8 bits
Scan type                                : Progressive
Bits/(Pixel*Frame)                       : 0.120
Stream size                              : 3.56 GiB (90%)
Writing library                          : x264 core 148 r2623 d5b2374
Encoding settings                        : cabac=1 / ref=4 / deblock=1:-1:-1 / analyse=0x3:0x133 / me=umh / subme=9 / psy=1 / psy_rd=1.00:0.15 / mixed_ref=1 / me_range=24 / chroma_me=1 / trellis=2 / 8x8dct=1 / cqm=0 / deadzone=21,11 / fast_pskip=1 / chroma_qp_offset=-3 / threads=34 / lookahead_threads=5 / sliced_threads=0 / nr=150 / decimate=1 / interlaced=0 / bluray_compat=0 / constrained_intra=0 / bframes=8 / b_pyramid=2 / b_adapt=2 / b_bias=0 / direct=3 / weightb=1 / open_gop=0 / weightp=2 / keyint=120 / keyint_min=61 / scenecut=0 / intra_refresh=0 / rc_lookahead=120 / rc=crf / mbtree=1 / crf=18.0 / qcomp=0.60 / qpmin=0 / qpmax=69 / qpstep=4 / vbv_maxrate=15000 / vbv_bufsize=31250 / crf_max=0.0 / nal_hrd=vbr / filler=0 / ip_ratio=1.40 / aq=3:1.00
Default                                  : Yes
Forced                                   : No
Color range                              : Limited
Color primaries                          : BT.709
Transfer characteristics                 : BT.709
Matrix coefficients                      : BT.709

Audio
ID                                       : 1
Format                                   : E-AC-3
Format/Info                              : Audio Coding 3
Format settings, Endianness              : Big
Codec ID                                 : A_EAC3
Duration                                 : 1h 25mn
Bit rate mode                            : Constant
Bit rate                                 : 640 Kbps
Channel(s)                               : 6 channels
Channel positions                        : Front: L C R, Side: L R, LFE
Sampling rate                            : 48.0 KHz
Frame rate                               : 187.500 fps (256 spf)
Compression mode                         : Lossy
Stream size                              : 390 MiB (10%)
Language                                 : English
Default                                  : Yes
Forced                                   : No

Text
ID                                       : 3
Format                                   : UTF-8
Codec ID                                 : S_TEXT/UTF8
Codec ID/Info                            : UTF-8 Plain Text
Duration                                 : 1h 25mn
Bit rate                                 : 54 bps
Count of elements                        : 1457
Stream size                              : 34.2 KiB (0%)
Default                                  : Yes
Forced                                   : No




1 個附件 售價 大小 下載 時間

Sinbad.Legend.of.The.Seven.Seas.2003.1080p.WEBRip.DD5.1.x264-TrollHD[btbtt.co].torrent 0 金币 79.52K 2294 次 4月前

#1樓
請幫忙分享到: | Twitter | Google+ | 微博 | 更多… 发帖時間:2017-01-11 09:39:20   |   回複數:5
911degrees
一代宗師
非常感謝,謝謝分享
4月前 #2樓
tanchoohoon
一派掌門
感謝樓主的無私分享
4月前 #3樓
zma729
武林高手
以上就是今天的輕松一刻...thanks
4月前 #4樓
liyouchai
超凡入聖№
謝謝樓主分享資源
4月前 #5樓
blue23
超凡入聖№
感謝樓主分享
4月前 #6樓
遊客組