aoloffline
版主

[2012] [歐美] [劇情] [WEB-1080P] [BT下載]电台甜心/DJ甜心 Radio.Rebel.2012.1080p.WEBRip.DD5.1.x264-TrollHD 8.56GB

-->

◎譯  名 電台甜心/DJ甜心/無線電叛逆/叛逆主播

◎片  名 Radio Rebel

◎年  代 2012

◎國  家 美國

◎類  別 劇情/家庭

◎語  言 英語

◎上映日期 2012-02-17

◎IMDb评分  6.3/10 from 5,299 users

◎IMDb链接  http://www.imdb.com/title/tt2008633/

◎豆瓣评分 5.7/10 from 359 users

◎豆瓣鏈接 https://movie.douban.com/subject/10805485/

◎BT之家整理  

◎片  長 89分鍾

◎导  演 彼得·休伊特 Peter Howitt

◎主  演 黛比·瑞恩 Debby Ryan

      Sarena Parmar

      Adam DiMarco

      Atticus Mitchell

      Merritt Patterson

      Mercedes de la Zerda

      Allie Bertram

      Iain Belcher

      Rowen Khan

      Nancy Robertson

      马丁·库明斯 Martin Cummins


◎簡  介


  ◎簡  介

  从小说改编,由迪士尼推出的电视電影。

  叙述一位十分害羞的17岁高中女孩塔拉,虽然总是不敢在公开场合对大家说话,但是却没人知道她其实也有狂野的一面。她在自己房间弄起了一个小型电台,就这样当起DJ,取名为“Radio Rebel”。

  她的廣播漸漸受到歡迎,還出現固定的聽衆,但都不知道原來這位電台甜心就是身邊這位不起眼的同學。直到後來,她開始在廣播節目中爲學校裏不公平的事情伸張正義,而這也將要引起一番風波......


Video
ID                                       : 2
Format                                   : AVC
Format/Info                              : Advanced Video Codec
Format profile                           : [email protected]
Format settings, CABAC                   : Yes
Format settings, ReFrames                : 4 frames
Codec ID                                 : V_MPEG4/ISO/AVC
Duration                                 : 1h 29mn
Bit rate mode                            : Variable
Bit rate                                 : 13.0 Mbps
Maximum bit rate                         : 15.0 Mbps
Width                                    : 1 920 pixels
Height                                   : 1 080 pixels
Display aspect ratio                     : 16:9
Frame rate mode                          : Constant
Frame rate                               : 23.976 (24000/1001) fps
Color space                              : YUV
Chroma subsampling                       : 4:2:0
Bit depth                                : 8 bits
Scan type                                : Progressive
Bits/(Pixel*Frame)                       : 0.262
Stream size                              : 8.16 GiB (95%)
Writing library                          : x264 core 148 r2623 d5b2374
Encoding settings                        : cabac=1 / ref=4 / deblock=1:-1:-1 / analyse=0x3:0x133 / me=umh / subme=9 / psy=1 / psy_rd=1.00:0.15 / mixed_ref=1 / me_range=24 / chroma_me=1 / trellis=2 / 8x8dct=1 / cqm=0 / deadzone=21,11 / fast_pskip=1 / chroma_qp_offset=-3 / threads=34 / lookahead_threads=5 / sliced_threads=0 / nr=150 / decimate=1 / interlaced=0 / bluray_compat=0 / constrained_intra=0 / bframes=8 / b_pyramid=2 / b_adapt=2 / b_bias=0 / direct=3 / weightb=1 / open_gop=0 / weightp=2 / keyint=120 / keyint_min=61 / scenecut=0 / intra_refresh=0 / rc_lookahead=120 / rc=crf / mbtree=1 / crf=18.0 / qcomp=0.60 / qpmin=0 / qpmax=69 / qpstep=4 / vbv_maxrate=15000 / vbv_bufsize=31250 / crf_max=0.0 / nal_hrd=vbr / filler=0 / ip_ratio=1.40 / aq=3:1.00
Default                                  : Yes
Forced                                   : No
Color range                              : Limited
Color primaries                          : BT.709
Transfer characteristics                 : BT.709
Matrix coefficients                      : BT.709

Audio
ID                                       : 1
Format                                   : E-AC-3
Format/Info                              : Audio Coding 3
Format settings, Endianness              : Big
Codec ID                                 : A_EAC3
Duration                                 : 1h 29mn
Bit rate mode                            : Constant
Bit rate                                 : 640 Kbps
Channel(s)                               : 6 channels
Channel positions                        : Front: L C R, Side: L R, LFE
Sampling rate                            : 48.0 KHz
Frame rate                               : 187.500 fps (256 spf)
Compression mode                         : Lossy
Stream size                              : 410 MiB (5%)
Language                                 : English
Default                                  : Yes
Forced                                   : No

Text
ID                                       : 3
Format                                   : UTF-8
Codec ID                                 : S_TEXT/UTF8
Codec ID/Info                            : UTF-8 Plain Text
Duration                                 : 1h 29mn
Bit rate                                 : 89 bps
Count of elements                        : 2335
Stream size                              : 58.5 KiB (0%)
Default                                  : Yes
Forced                                   : No





1 個附件 售價 大小 下載 時間

Radio.Rebel.2012.1080p.WEBRip.DD5.1.x264-TrollHD[btbtt.co].torrent 0 金币 86.20K 487 次 4月前

#1樓
請幫忙分享到: | Twitter | Google+ | 微博 | 更多… 发帖時間:2017-01-11 09:37:19   |   回複數:3
911degrees
一代宗師
非常感謝,謝謝分享
4月前 #2樓
liyouchai
超凡入聖№
謝謝樓主分享資源
4月前 #3樓
blue23
超凡入聖№
感謝樓主分享
4月前 #4樓
遊客組