aoloffline
版主

[2015] [歐美] [劇情] [WEB-1080P] [BT下載]微笑回应/报以微笑 I.Smile.Back.2015.1080p.WEBRip.DD5.1.x264-monkee 3.67GB

-->

◎譯  名 微笑回應/報以微笑

◎片  名 I Smile Back

◎年  代 2015

◎國  家 美國

◎類  別 劇情

◎語  言 英語

◎上映日期 2015-10-23(美國)

◎IMDb评分  6.1/10 from 3,725 users

◎IMDb链接  http://www.imdb.com/title/tt3640682/

◎豆瓣评分 5.8/10 from 376 users

◎豆瓣鏈接 https://movie.douban.com/subject/25881482/

◎BT之家整理  

◎片  長 85分鍾

◎导  演 Adam Salky

◎主  演 萨拉·西尔弗曼 Sarah Silverman

      乔西·查尔斯 Josh Charles

      托马斯·萨多斯基 Thomas Sadoski

      Mia Barron

      Skylar Gaertner

      Shayne Coleman

      Sean Reda

      Billy Magnussen


◎簡  介


  圣丹斯電影节展映影片,Sarah Silverman主演。兰妮有着幸福的家庭,但她并不满足,利用偷情、吸毒、失踪等等来获得短暂的刺激和快感;当她努力想回到原来的生活,却发现并没有那么容易。


◎獲獎情況


  第31届圣丹斯電影节  (2015)

  评审团大奖 剧情片(提名)


  第22届美国演员工会奖  (2016)

  電影奖 最佳女主角(提名) 萨拉·西尔弗曼


Video
ID                                       : 1
Format                                   : AVC
Format/Info                              : Advanced Video Codec
Format profile                           : [email protected]
Format settings, CABAC                   : Yes
Format settings, ReFrames                : 4 frames
Codec ID                                 : V_MPEG4/ISO/AVC
Duration                                 : 1h 25mn
Bit rate mode                            : Variable
Bit rate                                 : 5 496 Kbps
Maximum bit rate                         : 15.0 Mbps
Width                                    : 1 920 pixels
Height                                   : 800 pixels
Display aspect ratio                     : 2.40:1
Frame rate mode                          : Constant
Frame rate                               : 23.976 (24000/1001) fps
Color space                              : YUV
Chroma subsampling                       : 4:2:0
Bit depth                                : 8 bits
Scan type                                : Progressive
Bits/(Pixel*Frame)                       : 0.149
Stream size                              : 3.29 GiB (90%)
Writing library                          : x264 core 148 r2623 d5b2374
Encoding settings                        : cabac=1 / ref=4 / deblock=1:-1:-1 / analyse=0x3:0x133 / me=umh / subme=9 / psy=1 / psy_rd=1.00:0.15 / mixed_ref=1 / me_range=24 / chroma_me=1 / trellis=2 / 8x8dct=1 / cqm=0 / deadzone=21,11 / fast_pskip=1 / chroma_qp_offset=-3 / threads=25 / lookahead_threads=4 / sliced_threads=0 / nr=150 / decimate=1 / interlaced=0 / bluray_compat=0 / constrained_intra=0 / bframes=8 / b_pyramid=2 / b_adapt=2 / b_bias=0 / direct=3 / weightb=1 / open_gop=0 / weightp=2 / keyint=120 / keyint_min=61 / scenecut=0 / intra_refresh=0 / rc_lookahead=120 / rc=crf / mbtree=1 / crf=18.0 / qcomp=0.60 / qpmin=0 / qpmax=69 / qpstep=4 / vbv_maxrate=15000 / vbv_bufsize=31250 / crf_max=0.0 / nal_hrd=vbr / filler=0 / ip_ratio=1.40 / aq=3:1.00
Default                                  : Yes
Forced                                   : No
Color range                              : Limited
Color primaries                          : BT.709
Transfer characteristics                 : BT.709
Matrix coefficients                      : BT.709

Audio
ID                                       : 2
Format                                   : E-AC-3
Format/Info                              : Audio Coding 3
Format settings, Endianness              : Big
Codec ID                                 : A_EAC3
Duration                                 : 1h 25mn
Bit rate mode                            : Constant
Bit rate                                 : 640 Kbps
Channel(s)                               : 6 channels
Channel positions                        : Front: L C R, Side: L R, LFE
Sampling rate                            : 48.0 KHz
Frame rate                               : 187.500 fps (256 spf)
Compression mode                         : Lossy
Stream size                              : 392 MiB (10%)
Language                                 : English
Default                                  : Yes
Forced                                   : No

Text
ID                                       : 3
Format                                   : UTF-8
Codec ID                                 : S_TEXT/UTF8
Codec ID/Info                            : UTF-8 Plain Text
Duration                                 : 1h 19mn
Bit rate                                 : 54 bps
Count of elements                        : 1032
Stream size                              : 31.6 KiB (0%)
Language                                 : English
Default                                  : No
Forced                                   : No





1 個附件 售價 大小 下載 時間

I.Smile.Back.2015.1080p.WEBRip.DD5.1.x264-monkee[btbtt.co].torrent 0 金币 74.05K 571 次 3月前

#1樓
請幫忙分享到: | Twitter | Google+ | 微博 | 更多… 发帖時間:2017-01-11 09:28:50   |   回複數:4
911degrees
一代宗師
非常感謝,謝謝分享
3月前 #2樓
tanchoohoon
一派掌門
感謝樓主的無私分享
3月前 #3樓
liyouchai
超凡入聖№
謝謝樓主分享資源
3月前 #4樓
blue23
超凡入聖№
感謝樓主分享
3月前 #5樓
遊客組