aoloffline
版主

[更 早] [歐美] [喜劇] [WEB-1080P] [BT下載]拦途截爱/老婆, 我被绑架了! Held.Up.1999.1080p.WEBRip.DD5.1.x264-monkee 9.19GB

-->

◎译  名 拦途截爱/老婆, 我被绑架了!

◎片  名 Held Up

◎年  代 1999

◎國  家 美國

◎類  別 喜劇

◎語  言 英語

◎上映日期 2000-05-12

◎IMDb评分  5.1/10 from 2,922 users

◎IMDb链接  http://www.imdb.com/title/tt0165831/

◎BT之家整理  

◎片  长 89 分钟

◎导  演 史蒂夫 拉什 (Steve Rash)


◎簡  介


  While they're on vacation in the Southwest| Rae finds out her man Michael spent their house money on a classic car| so she dumps him| hitching a ride to Vegas for aflight home. A kid promptly steals Michael's car| leaving him at the Zip & Sip| a convenience store. Three bumbling robbers promptly stage a hold up. Two take offwith the cash stranding the third| with a mysterious crate| just as the cops arrive. The robber takes the store hostage. As incompetent cops bring in a SWAT team andtry a by-the-book rescue| Michael has to keep the robber calm| find out what's in the crate| aid the negotiations| and get back to Rae. The Stockholm Syndromeasserts its effect.


Video
ID                                       : 1
Format                                   : AVC
Format/Info                              : Advanced Video Codec
Format profile                           : [email protected]
Format settings, CABAC                   : Yes
Format settings, ReFrames                : 4 frames
Codec ID                                 : V_MPEG4/ISO/AVC
Duration                                 : 1h 28mn
Bit rate mode                            : Variable
Bit rate                                 : 14.2 Mbps
Maximum bit rate                         : 15.0 Mbps
Width                                    : 1 920 pixels
Height                                   : 1 080 pixels
Display aspect ratio                     : 16:9
Frame rate mode                          : Constant
Frame rate                               : 23.976 (24000/1001) fps
Color space                              : YUV
Chroma subsampling                       : 4:2:0
Bit depth                                : 8 bits
Scan type                                : Progressive
Bits/(Pixel*Frame)                       : 0.286
Stream size                              : 8.80 GiB (96%)
Writing library                          : x264 core 148 r2623 d5b2374
Encoding settings                        : cabac=1 / ref=4 / deblock=1:-1:-1 / analyse=0x3:0x133 / me=umh / subme=9 / psy=1 / psy_rd=1.00:0.15 / mixed_ref=1 / me_range=24 / chroma_me=1 / trellis=2 / 8x8dct=1 / cqm=0 / deadzone=21,11 / fast_pskip=1 / chroma_qp_offset=-3 / threads=34 / lookahead_threads=5 / sliced_threads=0 / nr=150 / decimate=1 / interlaced=0 / bluray_compat=0 / constrained_intra=0 / bframes=8 / b_pyramid=2 / b_adapt=2 / b_bias=0 / direct=3 / weightb=1 / open_gop=0 / weightp=2 / keyint=120 / keyint_min=61 / scenecut=0 / intra_refresh=0 / rc_lookahead=120 / rc=crf / mbtree=1 / crf=18.0 / qcomp=0.60 / qpmin=0 / qpmax=69 / qpstep=4 / vbv_maxrate=15000 / vbv_bufsize=31250 / crf_max=0.0 / nal_hrd=vbr / filler=0 / ip_ratio=1.40 / aq=3:1.00
Default                                  : Yes
Forced                                   : No
Color range                              : Limited
Color primaries                          : BT.709
Transfer characteristics                 : BT.709
Matrix coefficients                      : BT.709

Audio
ID                                       : 2
Format                                   : E-AC-3
Format/Info                              : Audio Coding 3
Format settings, Endianness              : Big
Codec ID                                 : A_EAC3
Duration                                 : 1h 28mn
Bit rate mode                            : Constant
Bit rate                                 : 640 Kbps
Channel(s)                               : 6 channels
Channel positions                        : Front: L C R, Side: L R, LFE
Sampling rate                            : 48.0 KHz
Frame rate                               : 187.500 fps (256 spf)
Compression mode                         : Lossy
Stream size                              : 406 MiB (4%)
Language                                 : English
Default                                  : Yes
Forced                                   : No

Text
ID                                       : 3
Format                                   : UTF-8
Codec ID                                 : S_TEXT/UTF8
Codec ID/Info                            : UTF-8 Plain Text
Duration                                 : 1h 24mn
Bit rate                                 : 73 bps
Count of elements                        : 1620
Stream size                              : 45.1 KiB (0%)
Language                                 : English
Default                                  : No
Forced                                   : No





1 個附件 售價 大小 下載 時間

Held.Up.1999.1080p.WEBRip.DD5.1.x264-monkee[btbtt.co].torrent 0 金币 92.53K 319 次 4月前

#1樓
請幫忙分享到: | Twitter | Google+ | 微博 | 更多… 发帖時間:2017-01-11 09:27:33   |   回複數:4
911degrees
一代宗師
非常感謝,謝謝分享
4月前 #2樓
tanchoohoon
一派掌門
感謝樓主的無私分享
4月前 #3樓
liyouchai
超凡入聖№
謝謝樓主分享資源
4月前 #4樓
blue23
超凡入聖№
感謝樓主分享
4月前 #5樓
遊客組