aoloffline
版主

[2012] [歐美] [科幻] [WEB-1080P] [BT下載]美女与野兽/少女大战怪兽 Girl.vs.Monster.2012.1080p.WEBRip.DD5.1.x264-TrollHD 7.15GB

-->

◎譯  名 美女與野獸/少女大戰怪獸

◎片  名 Girl vs. Monster

◎年  代 2012

◎國  家 美國

◎類  別 喜劇/科幻

◎語  言 英語

◎IMDb评分  5.7/10 from 1,614 users

◎IMDb链接  http://www.imdb.com/title/tt2326087/

◎豆瓣评分 4.5/10 from 44 users

◎豆瓣鏈接 https://movie.douban.com/subject/10805482/

◎BT之家整理  

◎导  演 斯图尔特·格兰德 Stuart Gillard

◎主  演 凯瑞斯·多西 Kerris Dorsey

      Olivia Holt

      Jennifer Aspen


◎簡  介


  这部2012年的迪士尼频道原创電影由Olivia Holt(《欢乐道场》《不是我干的》)领衔主演。从小到大无所畏惧的少女Skylar在这个万圣节见到了失控的怪兽,十多年来未曾体验过的恐惧感在这一刻汇聚起来,冲击着Skylar。她还发现,父母的身份并不只是他们一直所声称的 除菌专家,她自己其实是第五代怪兽猎人,肩负着保护人类免受怪兽侵袭的使命。这个万圣节,她能否战胜恐惧,保护自己的朋友和父母?


Video
ID                                       : 2
Format                                   : AVC
Format/Info                              : Advanced Video Codec
Format profile                           : [email protected]
Format settings, CABAC                   : Yes
Format settings, ReFrames                : 4 frames
Codec ID                                 : V_MPEG4/ISO/AVC
Duration                                 : 1h 28mn
Bit rate mode                            : Variable
Bit rate                                 : 10.9 Mbps
Maximum bit rate                         : 15.0 Mbps
Width                                    : 1 920 pixels
Height                                   : 1 080 pixels
Display aspect ratio                     : 16:9
Frame rate mode                          : Constant
Frame rate                               : 23.976 (24000/1001) fps
Color space                              : YUV
Chroma subsampling                       : 4:2:0
Bit depth                                : 8 bits
Scan type                                : Progressive
Bits/(Pixel*Frame)                       : 0.220
Stream size                              : 6.75 GiB (94%)
Writing library                          : x264 core 148 r2623 d5b2374
Encoding settings                        : cabac=1 / ref=4 / deblock=1:-1:-1 / analyse=0x3:0x133 / me=umh / subme=9 / psy=1 / psy_rd=1.00:0.15 / mixed_ref=1 / me_range=24 / chroma_me=1 / trellis=2 / 8x8dct=1 / cqm=0 / deadzone=21,11 / fast_pskip=1 / chroma_qp_offset=-3 / threads=34 / lookahead_threads=5 / sliced_threads=0 / nr=150 / decimate=1 / interlaced=0 / bluray_compat=0 / constrained_intra=0 / bframes=8 / b_pyramid=2 / b_adapt=2 / b_bias=0 / direct=3 / weightb=1 / open_gop=0 / weightp=2 / keyint=120 / keyint_min=61 / scenecut=0 / intra_refresh=0 / rc_lookahead=120 / rc=crf / mbtree=1 / crf=18.0 / qcomp=0.60 / qpmin=0 / qpmax=69 / qpstep=4 / vbv_maxrate=15000 / vbv_bufsize=31250 / crf_max=0.0 / nal_hrd=vbr / filler=0 / ip_ratio=1.40 / aq=3:1.00
Default                                  : Yes
Forced                                   : No
Color range                              : Limited
Color primaries                          : BT.709
Transfer characteristics                 : BT.709
Matrix coefficients                      : BT.709

Audio
ID                                       : 1
Format                                   : E-AC-3
Format/Info                              : Audio Coding 3
Format settings, Endianness              : Big
Codec ID                                 : A_EAC3
Duration                                 : 1h 28mn
Bit rate mode                            : Constant
Bit rate                                 : 640 Kbps
Channel(s)                               : 6 channels
Channel positions                        : Front: L C R, Side: L R, LFE
Sampling rate                            : 48.0 KHz
Frame rate                               : 187.500 fps (256 spf)
Compression mode                         : Lossy
Stream size                              : 405 MiB (6%)
Language                                 : English
Default                                  : Yes
Forced                                   : No





1 個附件 售價 大小 下載 時間

Girl.vs.Monster.2012.1080p.WEBRip.DD5.1.x264-TrollHD[btbtt.co].torrent 0 金币 72.09K 610 次 1月前

#1樓
发帖時間:2017-01-11 09:23:44   |   回複數:5
911degrees
一代宗師
非常感謝,謝謝分享
1月前 #2樓
sxp709
一派掌門
謝謝分享
1月前 #3樓
liyouchai
一代宗師
謝謝樓主分享資源
1月前 #4樓
zma729
武林高手
good ... Thanks a lot ! 感谢楼主 ! 感谢 !
1月前 #5樓
blue23
超凡入聖№
感謝樓主分享
1月前 #6樓
遊客組