aoloffline
版主

[2016] [歐美] [紀錄] [WEB-1080P] [BT下載]Distance.Between.Dreams.2016.iNTERNAL.1080p.WEBRip.x264-13 5.85GB

-->

◎譯  名 

◎片  名 Distance Between Dreams

◎年  代 2016

◎國  家 美國

◎語  言 英語

◎IMDb评分  6.9/10 from 45 users

◎IMDb链接  http://www.imdb.com/title/tt6255746/

◎BT之家整理  

◎片  長 63分鍾

◎导  演 Rob Bruce


◎簡  介


  In Distance Between Dreams, the most historic year in big wave surfing comes to life through the eyes of iconic surfer Ian Walsh, as he sets mind and body in motion to redefine the upper limits of what's considered 'rideable.' With massive El Ni?o powered swells building across the Pacific, Ian, Shaun, D.K. and Luke Walsh band together in the way only brothers can on a quest to progress surfing to unimaginable heights. Big wave surfing's transition from jet ski assists to paddling in raises the stakes, putting Walsh's intense physical and mental training, the latest technology, swell modeling, and safety team, his brothers, to the ultimate test. Surfers John John Florence, Greg Long, Shane Dorian and more link up with Walsh as he rides an emotional rollercoaster through this momentous winter. The second feature in Red Bull Media House's The Unrideables franchise, Distance Between Dreams invites viewers right into the heart of the action with first person perspective, state-of-the-art cinematography, and captivating sound. Through unprecedented access, prepare to truly experience Walsh's quest to survive and thrive in one of the most hostile environments on earth. Coming December 2016, DistanceBetweenDreams.com.


Video
ID                                       : 1
Format                                   : AVC
Format/Info                              : Advanced Video Codec
Format profile                           : [email protected]
Format settings, CABAC                   : Yes
Format settings, ReFrames                : 4 frames
Codec ID                                 : V_MPEG4/ISO/AVC
Duration                                 : 1h 2mn
Bit rate                                 : 13.2 Mbps
Width                                    : 1 920 pixels
Height                                   : 1 080 pixels
Display aspect ratio                     : 16:9
Frame rate mode                          : Constant
Frame rate                               : 23.976 (23976/1000) fps
Original frame rate                      : 23.976 (24000/1001) fps
Color space                              : YUV
Chroma subsampling                       : 4:2:0
Bit depth                                : 8 bits
Scan type                                : Progressive
Bits/(Pixel*Frame)                       : 0.266
Stream size                              : 5.74 GiB (98%)
Writing library                          : x264 core 148 r2721 72d53ab
Encoding settings                        : cabac=1 / ref=4 / deblock=1:0:0 / analyse=0x3:0x113 / me=hex / subme=8 / psy=1 / psy_rd=1.00:0.00 / mixed_ref=1 / me_range=16 / chroma_me=1 / trellis=2 / 8x8dct=1 / cqm=0 / deadzone=21,11 / fast_pskip=1 / chroma_qp_offset=-2 / threads=6 / lookahead_threads=1 / sliced_threads=0 / nr=0 / decimate=1 / interlaced=0 / bluray_compat=0 / constrained_intra=0 / bframes=3 / b_pyramid=2 / b_adapt=1 / b_bias=0 / direct=3 / weightb=1 / open_gop=0 / weightp=2 / keyint=240 / keyint_min=24 / scenecut=40 / intra_refresh=0 / rc_lookahead=50 / rc=crf / mbtree=1 / crf=17.0 / qcomp=0.60 / qpmin=0 / qpmax=69 / qpstep=4 / ip_ratio=1.40 / aq=1:0.70
Language                                 : English
Default                                  : Yes
Forced                                   : No
Color range                              : Limited
Matrix coefficients                      : BT.709

Audio
ID                                       : 2
Format                                   : AAC
Format/Info                              : Advanced Audio Codec
Format profile                           : LC
Codec ID                                 : A_AAC
Duration                                 : 1h 2mn
Bit rate                                 : 256 Kbps
Channel(s)                               : 2 channels
Channel positions                        : Front: L R
Sampling rate                            : 48.0 KHz
Frame rate                               : 46.875 fps (1024 spf)
Compression mode                         : Lossy
Stream size                              : 114 MiB (2%)
Language                                 : English
Default                                  : Yes
Forced                                   : No





1 個附件 售價 大小 下載 時間

Distance.Between.Dreams.2016.iNTERNAL.1080p.WEBRip.x264-13[btbtt.co].torrent 0 金币 59.16K 550 次 4月前

#1樓
請幫忙分享到: | Twitter | Google+ | 微博 | 更多… 发帖時間:2017-01-11 09:22:02   |   回複數:3
911degrees
一代宗師
非常感謝,謝謝分享
4月前 #2樓
liyouchai
超凡入聖№
謝謝樓主分享資源
4月前 #3樓
blue23
超凡入聖№
感謝樓主分享
4月前 #4樓
遊客組