aoloffline
版主

[2013] [歐美] [紀錄] [WEB-1080P] [BT下載]对美的渴望 Desire.for.Beauty.2013.1080p.WEBRip.DD2.0.x264-TrollHD 3.49GB

-->

◎譯  名 對美的渴望

◎片  名 Desire for Beauty

◎年  代 2013

◎國  家 波蘭

◎類  別 紀錄片

◎語  言 波蘭語

◎上映日期 2013-03-22(波蘭)

◎IMDb评分  8.1/10 from 62 users

◎IMDb链接  http://www.imdb.com/title/tt1828163/

◎BT之家整理  

◎片  長 90分鍾

◎导  演 Miguel Gaudêncio


◎簡  介


  The first ever Polish documentary on the issues of beauty and self-perception. It follows the winding journeys of four people who turn to plastic surgery as the lastresort in their search for perfection. Aside from the obvious dilemmas| Desire for Beauty addresses numerous hidden questions| and reveals things that neither themakers nor the heroes of the film really expected. The making of the film attracted a number of renowned members of Polish social scene| and found solid support inthe professional opinions of the country's top experts in various fields - from psychology to the fashion industry. However| more importantly| the film will take itsspectators on a breathtaking emotional ride| and trigger a wave of discussion about one of humankind's most unquenchable desires...



Video
ID                                       : 2
Format                                   : AVC
Format/Info                              : Advanced Video Codec
Format profile                           : [email protected]
Format settings, CABAC                   : Yes
Format settings, ReFrames                : 4 frames
Codec ID                                 : V_MPEG4/ISO/AVC
Duration                                 : 1h 28mn
Bit rate mode                            : Variable
Bit rate                                 : 5 412 Kbps
Maximum bit rate                         : 15.0 Mbps
Width                                    : 1 920 pixels
Height                                   : 800 pixels
Display aspect ratio                     : 2.40:1
Frame rate mode                          : Constant
Frame rate                               : 25.000 fps
Color space                              : YUV
Chroma subsampling                       : 4:2:0
Bit depth                                : 8 bits
Scan type                                : Progressive
Bits/(Pixel*Frame)                       : 0.141
Stream size                              : 3.35 GiB (96%)
Writing library                          : x264 core 148 r2623 d5b2374
Encoding settings                        : cabac=1 / ref=4 / deblock=1:-1:-1 / analyse=0x3:0x133 / me=umh / subme=9 / psy=1 / psy_rd=1.00:0.15 / mixed_ref=1 / me_range=24 / chroma_me=1 / trellis=2 / 8x8dct=1 / cqm=0 / deadzone=21,11 / fast_pskip=1 / chroma_qp_offset=-3 / threads=25 / lookahead_threads=4 / sliced_threads=0 / nr=150 / decimate=1 / interlaced=0 / bluray_compat=0 / constrained_intra=0 / bframes=8 / b_pyramid=2 / b_adapt=2 / b_bias=0 / direct=3 / weightb=1 / open_gop=0 / weightp=2 / keyint=125 / keyint_min=63 / scenecut=0 / intra_refresh=0 / rc_lookahead=125 / rc=crf / mbtree=1 / crf=18.0 / qcomp=0.60 / qpmin=0 / qpmax=69 / qpstep=4 / vbv_maxrate=15000 / vbv_bufsize=31250 / crf_max=0.0 / nal_hrd=vbr / filler=0 / ip_ratio=1.40 / aq=3:1.00
Default                                  : Yes
Forced                                   : No
Color range                              : Limited
Color primaries                          : BT.709
Transfer characteristics                 : BT.709
Matrix coefficients                      : BT.709

Audio
ID                                       : 1
Format                                   : E-AC-3
Format/Info                              : Audio Coding 3
Format settings, Endianness              : Big
Codec ID                                 : A_EAC3
Duration                                 : 1h 28mn
Bit rate mode                            : Constant
Bit rate                                 : 224 Kbps
Channel(s)                               : 2 channels
Channel positions                        : Front: L R
Sampling rate                            : 48.0 KHz
Frame rate                               : 187.500 fps (256 spf)
Compression mode                         : Lossy
Stream size                              : 142 MiB (4%)
Language                                 : English
Default                                  : Yes
Forced                                   : No




1 個附件 售價 大小 下載 時間

Desire.for.Beauty.2013.1080p.WEBRip.DD2.0.x264-TrollHD[btbtt.co].torrent 0 金币 70.36K 1010 次 1月前

#1樓
发帖時間:2017-01-11 09:19:02   |   回複數:4
911degrees
一代宗師
非常感謝,謝謝分享
1月前 #2樓
tanchoohoon
一派掌門
感謝樓主的無私分享
1月前 #3樓
liyouchai
一代宗師
謝謝樓主分享資源
1月前 #4樓
blue23
超凡入聖№
感謝樓主分享
1月前 #5樓
遊客組