aoloffline
版主

[2009] [歐美] [劇情] [WEB-1080P] [BT下載]美国女孩:勇敢的克里莎 An.American.Girl.2009.1080p.WEBRip.DD2.0.x264-TrollHD 8.7GB

-->


◎譯  名 美國女孩:勇敢的克裏莎

◎片  名 An American Girl: Chrissa Stands Strong

◎年  代 2009

◎國  家 美國

◎類  別 劇情/家庭

◎語  言 英語

◎上映日期 2009-01-05

◎IMDb评分  6.3/10 from 654 users

◎IMDb链接  http://www.imdb.com/title/tt1340418/

◎豆瓣评分 6.7/10 from 59 users

◎豆瓣鏈接 https://movie.douban.com/subject/3399600/

◎BT之家整理  

◎片  长 91 分钟(TV premiere)

◎导  演 Martha Coolidge

◎主  演 Ariela Barer

      Don Franklin

      Sammi Hanratty


◎簡  介


  这是第5部以美国著名少女儿童玩偶AMERICAN GIRL为原型的原创電影,HBO出品,故事讲述四年级的女孩CHRISSA年中搬到了一所新学校,但是同班的女生对她并不友好,那些坏女孩经常欺负她,无论是上课,校车上还是游泳课,其中一个头目成为了CHRISSA游泳课上的竞争对手,情况越加恶劣,CHRISSA能勇敢的面对这一切并不再被欺负吗?剧情类似小学版《绯闻女孩》。



Video
ID                                       : 2
Format                                   : AVC
Format/Info                              : Advanced Video Codec
Format profile                           : [email protected]
Format settings, CABAC                   : Yes
Format settings, ReFrames                : 4 frames
Codec ID                                 : V_MPEG4/ISO/AVC
Duration                                 : 1h 30mn
Bit rate mode                            : Variable
Bit rate                                 : 13.6 Mbps
Maximum bit rate                         : 15.0 Mbps
Width                                    : 1 920 pixels
Height                                   : 1 080 pixels
Display aspect ratio                     : 16:9
Frame rate mode                          : Constant
Frame rate                               : 23.976 (24000/1001) fps
Color space                              : YUV
Chroma subsampling                       : 4:2:0
Bit depth                                : 8 bits
Scan type                                : Progressive
Bits/(Pixel*Frame)                       : 0.273
Stream size                              : 8.60 GiB (98%)
Writing library                          : x264 core 148 r2623 d5b2374
Encoding settings                        : cabac=1 / ref=4 / deblock=1:-1:-1 / analyse=0x3:0x133 / me=umh / subme=9 / psy=1 / psy_rd=1.00:0.15 / mixed_ref=1 / me_range=24 / chroma_me=1 / trellis=2 / 8x8dct=1 / cqm=0 / deadzone=21,11 / fast_pskip=1 / chroma_qp_offset=-3 / threads=34 / lookahead_threads=5 / sliced_threads=0 / nr=150 / decimate=1 / interlaced=0 / bluray_compat=0 / constrained_intra=0 / bframes=8 / b_pyramid=2 / b_adapt=2 / b_bias=0 / direct=3 / weightb=1 / open_gop=0 / weightp=2 / keyint=120 / keyint_min=61 / scenecut=0 / intra_refresh=0 / rc_lookahead=120 / rc=crf / mbtree=1 / crf=18.0 / qcomp=0.60 / qpmin=0 / qpmax=69 / qpstep=4 / vbv_maxrate=15000 / vbv_bufsize=31250 / crf_max=0.0 / nal_hrd=vbr / filler=0 / ip_ratio=1.40 / aq=3:1.00
Default                                  : Yes
Forced                                   : No
Color range                              : Limited
Color primaries                          : BT.709
Transfer characteristics                 : BT.709
Matrix coefficients                      : BT.709

Audio
ID                                       : 1
Format                                   : E-AC-3
Format/Info                              : Audio Coding 3
Format settings, Endianness              : Big
Codec ID                                 : A_EAC3
Duration                                 : 1h 30mn
Bit rate mode                            : Constant
Bit rate                                 : 224 Kbps
Channel(s)                               : 2 channels
Channel positions                        : Front: L R
Sampling rate                            : 48.0 KHz
Frame rate                               : 187.500 fps (256 spf)
Compression mode                         : Lossy
Stream size                              : 145 MiB (2%)
Language                                 : English
Default                                  : Yes
Forced                                   : No




1 個附件 售價 大小 下載 時間

An.American.Girl.Chrissa.Stands.Strong.2009.1080p.WEBRip.DD2.0.x264-TrollHD[btbtt.co].torrent 0 金币 88.11K 238 次 13天前

#1樓
发帖時間:2017-01-10 23:30:02   |   回複數:3
liyouchai
一代宗師
謝謝樓主分享資源
13天前 #2樓
911degrees
一代宗師
非常感謝,謝謝分享
13天前 #3樓
blue23
超凡入聖№
感謝樓主分享
11天前 #4樓
遊客組