aoloffline
版主

[2012] [歐美] [喜劇] [WEB-1080P] [BT下載]艾米·舒默脱口秀 Amy.Schumer.2013.1080p.WEBRip.DD2.0.x264-TrollHD 6.3GB

-->

◎譯  名 艾米·舒默脫口秀

◎片  名 Amy Schumer: Mostly Sex Stuff

◎年  代 2012

◎國  家 美國

◎類  別 喜劇

◎語  言 英語

◎上映日期 2012-08-18

◎IMDb评分  7.3/10 from 1,573 users

◎IMDb链接  http://www.imdb.com/title/tt2346046/

◎豆瓣评分 8.1/10 from 67 users

◎豆瓣鏈接 https://movie.douban.com/subject/11636799/

◎主  演 艾米·舒默 Amy Schumer


◎簡  介


  Nothing is off limits for Amy Schumer in her first original one-hour stand-up special. Schumer airs every hilarious| messed-up detail of her dating and sex life|from encounters with unexpected body parts to hate-filled personal grooming appointments.


Video
ID                                       : 2
Format                                   : AVC
Format/Info                              : Advanced Video Codec
Format profile                           : [email protected]
Format settings, CABAC                   : Yes
Format settings, ReFrames                : 4 frames
Codec ID                                 : V_MPEG4/ISO/AVC
Duration                                 : 1h 0mn
Bit rate mode                            : Variable
Bit rate                                 : 14.8 Mbps
Maximum bit rate                         : 15.0 Mbps
Width                                    : 1 920 pixels
Height                                   : 1 080 pixels
Display aspect ratio                     : 16:9
Frame rate mode                          : Constant
Frame rate                               : 29.970 (30000/1001) fps
Color space                              : YUV
Chroma subsampling                       : 4:2:0
Bit depth                                : 8 bits
Scan type                                : Progressive
Bits/(Pixel*Frame)                       : 0.239
Stream size                              : 6.24 GiB (98%)
Writing library                          : x264 core 148 r2623 d5b2374
Encoding settings                        : cabac=1 / ref=4 / deblock=1:-1:-1 / analyse=0x3:0x133 / me=umh / subme=9 / psy=1 / psy_rd=1.00:0.15 / mixed_ref=1 / me_range=24 / chroma_me=1 / trellis=2 / 8x8dct=1 / cqm=0 / deadzone=21,11 / fast_pskip=1 / chroma_qp_offset=-3 / threads=34 / lookahead_threads=5 / sliced_threads=0 / nr=150 / decimate=1 / interlaced=0 / bluray_compat=0 / constrained_intra=0 / bframes=8 / b_pyramid=2 / b_adapt=2 / b_bias=0 / direct=3 / weightb=1 / open_gop=0 / weightp=2 / keyint=150 / keyint_min=76 / scenecut=0 / intra_refresh=0 / rc_lookahead=150 / rc=crf / mbtree=1 / crf=18.0 / qcomp=0.60 / qpmin=0 / qpmax=69 / qpstep=4 / vbv_maxrate=15000 / vbv_bufsize=31250 / crf_max=0.0 / nal_hrd=vbr / filler=0 / ip_ratio=1.40 / aq=3:1.00
Default                                  : Yes
Forced                                   : No
Color range                              : Limited
Color primaries                          : BT.709
Transfer characteristics                 : BT.709
Matrix coefficients                      : BT.709

Audio
ID                                       : 1
Format                                   : E-AC-3
Format/Info                              : Audio Coding 3
Format settings, Endianness              : Big
Codec ID                                 : A_EAC3
Duration                                 : 1h 0mn
Bit rate mode                            : Constant
Bit rate                                 : 224 Kbps
Channel(s)                               : 2 channels
Channel positions                        : Front: L R
Sampling rate                            : 48.0 KHz
Frame rate                               : 187.500 fps (256 spf)
Compression mode                         : Lossy
Stream size                              : 96.5 MiB (1%)
Language                                 : English
Default                                  : Yes
Forced                                   : No

Text
ID                                       : 3
Format                                   : UTF-8
Codec ID                                 : S_TEXT/UTF8
Codec ID/Info                            : UTF-8 Plain Text
Duration                                 : 1h 0mn
Bit rate                                 : 100 bps
Count of elements                        : 1471
Stream size                              : 44.2 KiB (0%)
Default                                  : Yes
Forced                                   : No




1 個附件 售價 大小 下載 時間

Amy.Schumer.Mostly.Sex.Stuff.2013.1080p.WEBRip.DD2.0.x264-TrollHD[btbtt.co].torrent 0 金币 64.00K 532 次 1月前

#1樓
发帖時間:2017-01-10 23:27:36   |   回複數:3
liyouchai
一代宗師
謝謝樓主分享資源
1月前 #2樓
911degrees
一代宗師
非常感謝,謝謝分享
1月前 #3樓
blue23
超凡入聖№
感謝樓主分享
1月前 #4樓
遊客組