aoloffline
版主

[更 早] [歐美] [劇情] [BD-1080P] [BT下載]纸老虎 Paper.Tiger.1975.1080p.BluRay.x264-FAPCAVE 6.56GB

-->

◎譯  名 紙老虎

◎片  名 太陽にかける橋/ペーパータイガー

◎年  代 1975

◎國  家 英國

◎類  別 冒險/劇情

◎語  言 英語

◎上映日期 1975-09-12

◎IMDb评分  6.1/10 from 339 users

◎IMDb链接  http://www.imdb.com/title/tt0073511/

◎豆瓣评分 9.0/10 from 222 users

◎豆瓣鏈接 https://movie.douban.com/subject/1305082/

◎BT之家整理   

◎片  长 Germany: 99 分钟/USA: 99 分钟

◎导  演 Ken Annakin

◎主  演 三船敏郎 Toshir Mifune

      大卫·尼文 David Niven


◎簡  介


  A somewhat prim and proper Englishman is hired as the tutor to the son of the Japanese ambassador. His life changes when he and the boy are kidnapped by terroristsfor political purposes.



Video
ID                                       : 1
Format                                   : AVC
Format/Info                              : Advanced Video Codec
Format profile                           : [email protected]
Format settings, CABAC                   : Yes
Format settings, ReFrames                : 4 frames
Codec ID                                 : V_MPEG4/ISO/AVC
Duration                                 : 1h 39mn
Bit rate                                 : 8 824 Kbps
Width                                    : 1 920 pixels
Height                                   : 1 080 pixels
Display aspect ratio                     : 16:9
Frame rate mode                          : Constant
Frame rate                               : 24.000 fps
Color space                              : YUV
Chroma subsampling                       : 4:2:0
Bit depth                                : 8 bits
Scan type                                : Progressive
Bits/(Pixel*Frame)                       : 0.177
Stream size                              : 6.11 GiB (93%)
Writing library                          : x264 core 146 r2538 121396c
Encoding settings                        : cabac=1 / ref=4 / deblock=1:0:0 / analyse=0x3:0x133 / me=umh / subme=7 / psy=1 / psy_rd=1.00:0.00 / mixed_ref=1 / me_range=16 / chroma_me=1 / trellis=1 / 8x8dct=1 / cqm=0 / deadzone=21,11 / fast_pskip=0 / chroma_qp_offset=-2 / threads=12 / lookahead_threads=2 / sliced_threads=0 / nr=0 / decimate=1 / interlaced=0 / bluray_compat=0 / constrained_intra=0 / bframes=3 / b_pyramid=2 / b_adapt=2 / b_bias=0 / direct=3 / weightb=1 / open_gop=0 / weightp=2 / keyint=250 / keyint_min=24 / scenecut=40 / intra_refresh=0 / rc_lookahead=50 / rc=2pass / mbtree=1 / bitrate=8824 / ratetol=1.0 / qcomp=0.60 / qpmin=0 / qpmax=69 / qpstep=4 / cplxblur=20.0 / qblur=0.5 / ip_ratio=1.40 / aq=1:1.00
Language                                 : English
Default                                  : Yes
Forced                                   : No

Audio
ID                                       : 2
Format                                   : AC-3
Format/Info                              : Audio Coding 3
Mode extension                           : CM (complete main)
Format settings, Endianness              : Big
Codec ID                                 : A_AC3
Duration                                 : 1h 39mn
Bit rate mode                            : Constant
Bit rate                                 : 640 Kbps
Channel(s)                               : 2 channels
Channel positions                        : Front: L R
Sampling rate                            : 48.0 KHz
Frame rate                               : 31.250 fps (1536 spf)
Compression mode                         : Lossy
Stream size                              : 454 MiB (7%)
Language                                 : English
Default                                  : Yes
Forced                                   : No



1 個附件 售價 大小 下載 時間

Paper.Tiger.1975.1080p.BluRay.x264-FAPCAVE[btbtt.co].torrent 0 金币 66.08K 560 次 14天前

#1樓
发帖時間:2017-01-10 10:31:52   |   回複數:3
blue23
超凡入聖№
感謝樓主分享
14天前 #2樓
911degrees
一代宗師
非常感謝,謝謝分享
14天前 #3樓
liyouchai
一代宗師
謝謝樓主分享資源
13天前 #4樓
遊客組