aoloffline
版主

[2014] [多國] [劇情] [BD-1080P] [BT下載]爱我请留言 Love.Me.2014.1080p.BluRay.x264-KaKa 5.46GB

-->

◎譯  名 愛我請留言

◎片  名 愛我請留言

◎年  代 2014

◎國  家 印度/澳大利亞/美國

◎類  別 劇情/愛情

◎語  言 英語

◎上映日期 2014-03-31(香港)

◎豆瓣评分 8.4/10 from 4,691 users

◎豆瓣鏈接 https://movie.douban.com/subject/24753689/

◎集  數 20

◎片  長 40

◎导  演 陈耀全 Andy Chan

◎主  演 黄浩然 Ho-Yin Wong

      黄翠如 Priscilla Wong

      洪永城 Tony Hung

      王浩信 Vincent Wong

      姚子羚 Elaine Yiu

      陈秀珠 Rebecca Chan Sau-Chu

      关礼杰 Eddie Kwan

      傅嘉莉 Kelly Fu

      梁嘉琪 Kaki Leung

      楊铠凝

      周骢 Chung Chow

      罗兰 Lan Law

      张颖康 Wing-Hong Cheung

      张振朗 Owen Cheung

      方伊琪 Yi-kei Fong

      杜燕歌 Yin-gor To

      鲁振顺 Chun-shun Lo

      陳婉婷

      李成昌 Shing-Cheung Lee


◎簡  介


  忍不住查看男友手机的初见(黄翠茹 饰)意外的发现了男友和其他女孩的暧昧讯息,感情受到伤害的初见黯然神伤,再也无法面对男友一如既往的甜言蜜语。天送(黄浩然 饰)的姐姐和姐夫死于一场火灾,心中充满了对于姐姐的愧疚,天送毅然放弃了自己成为玻璃艺术家的梦想,收养了姐姐的女儿悠悠(杨铠凝 饰),没想到他对悠悠的无微不至在无形之中给予了恋人蔡妍(姚子羚 饰)巨大的心理压力,如积月累之间,两人渐行渐远。

  悠悠和保姆爱林(陈秀珠 饰)之间感情十分要好,而爱林不是别人,正是初见的母亲,天送和初见就此相识。随着時間的推移,天送和初见之间的距离渐渐缩短,但此时的天送并不知道自己是否应该重新开始一段感情,初见的身边亦有名为王子翔(王浩信 饰)的英俊上司对其情有独钟。


Video
ID                                       : 1
Format                                   : AVC
Format/Info                              : Advanced Video Codec
Format profile                           : [email protected]
Format settings, CABAC                   : Yes
Format settings, ReFrames                : 4 frames
Codec ID                                 : V_MPEG4/ISO/AVC
Duration                                 : 1h 34mn
Bit rate                                 : 8 091 Kbps
Width                                    : 1 920 pixels
Height                                   : 1 080 pixels
Display aspect ratio                     : 16:9
Frame rate mode                          : Constant
Frame rate                               : 23.976 (24000/1001) fps
Color space                              : YUV
Chroma subsampling                       : 4:2:0
Bit depth                                : 8 bits
Scan type                                : Progressive
Bits/(Pixel*Frame)                       : 0.163
Stream size                              : 5.22 GiB (96%)
Writing library                          : x264 core 148 r2665 a01e339
Encoding settings                        : cabac=1 / ref=4 / deblock=1:-1:-1 / analyse=0x3:0x113 / me=umh / subme=7 / psy=1 / psy_rd=1.00:0.00 / mixed_ref=1 / me_range=16 / chroma_me=1 / trellis=1 / 8x8dct=1 / cqm=0 / deadzone=21,11 / fast_pskip=1 / chroma_qp_offset=-2 / threads=12 / lookahead_threads=2 / sliced_threads=0 / nr=0 / decimate=1 / interlaced=0 / bluray_compat=0 / constrained_intra=0 / bframes=3 / b_pyramid=2 / b_adapt=2 / b_bias=0 / direct=3 / weightb=1 / open_gop=0 / weightp=2 / keyint=250 / keyint_min=23 / scenecut=40 / intra_refresh=0 / rc_lookahead=40 / rc=2pass / mbtree=1 / bitrate=8091 / ratetol=1.0 / qcomp=0.60 / qpmin=0 / qpmax=69 / qpstep=4 / cplxblur=20.0 / qblur=0.5 / vbv_maxrate=50000 / vbv_bufsize=50000 / nal_hrd=none / filler=0 / ip_ratio=1.40 / aq=1:1.00
Language                                 : English
Default                                  : Yes
Forced                                   : No

Audio
ID                                       : 2
Format                                   : AC-3
Format/Info                              : Audio Coding 3
Mode extension                           : CM (complete main)
Format settings, Endianness              : Big
Codec ID                                 : A_AC3
Duration                                 : 1h 34mn
Bit rate mode                            : Constant
Bit rate                                 : 192 Kbps
Channel(s)                               : 2 channels
Channel positions                        : Front: L R
Sampling rate                            : 48.0 KHz
Frame rate                               : 31.250 fps (1536 spf)
Compression mode                         : Lossy
Stream size                              : 130 MiB (2%)
Language                                 : English
Default                                  : Yes
Forced                                   : No




1 個附件 售價 大小 下載 時間

Love.Me.2014.1080p.BluRay.x264-KaKa[btbtt.co].torrent 0 金币 55.09K 1338 次 4月前

#1樓
請幫忙分享到: | Twitter | Google+ | 微博 | 更多… 发帖時間:2017-01-10 10:26:10   |   回複數:3
blue23
超凡入聖№
感謝樓主分享
4月前 #2樓
911degrees
一代宗師
非常感謝,謝謝分享
4月前 #3樓
liyouchai
超凡入聖№
謝謝樓主分享資源
4月前 #4樓
遊客組