aoloffline
版主

[2009] [歐美] [恐怖] [BD-1080P] [BT下載]坏女孩家规 House.Rules.for.Bad.Girls.2009.1080p.BluRay.x264-PussyFoot 7.6GB

-->

◎譯  名 壞女孩家規

◎片  名 New Hope Manor

◎國  家 美國

◎類  別 驚悚/恐怖

◎語  言 英語

◎上映日期 2009

◎IMDb评分  3.5/10 from 62 users

◎IMDb链接  http://www.imdb.com/title/tt1352386/

◎BT之家整理

◎导  演 Danny LeGare


◎簡  介


  Becca has just arrived back to New Hope (a girls Ranch) to find that there is a new set of rules she is going to need to follow.



Video
ID                                       : 1
Format                                   : AVC
Format/Info                              : Advanced Video Codec
Format profile                           : [email protected]
Format settings, CABAC                   : Yes
Format settings, ReFrames                : 4 frames
Codec ID                                 : V_MPEG4/ISO/AVC
Duration                                 : 1h 24mn
Bit rate                                 : 12.0 Mbps
Width                                    : 1 920 pixels
Height                                   : 960 pixels
Display aspect ratio                     : 2.000
Frame rate mode                          : Constant
Frame rate                               : 23.976 (24000/1001) fps
Color space                              : YUV
Chroma subsampling                       : 4:2:0
Bit depth                                : 8 bits
Scan type                                : Progressive
Bits/(Pixel*Frame)                       : 0.271
Stream size                              : 6.93 GiB (91%)
Title                                    : pussyfoot-houserules-1080p
Writing library                          : x264 core 142 r2479 dd79a61
Encoding settings                        : cabac=1 / ref=4 / deblock=1:-3:-3 / analyse=0x3:0x113 / me=umh / subme=8 / psy=1 / psy_rd=1.00:0.15 / mixed_ref=1 / me_range=16 / chroma_me=1 / trellis=1 / 8x8dct=1 / cqm=0 / deadzone=21,11 / fast_pskip=0 / chroma_qp_offset=-3 / threads=6 / lookahead_threads=1 / sliced_threads=0 / nr=0 / decimate=1 / interlaced=0 / bluray_compat=0 / constrained_intra=0 / bframes=3 / b_pyramid=2 / b_adapt=2 / b_bias=0 / direct=3 / weightb=1 / open_gop=0 / weightp=2 / keyint=240 / keyint_min=24 / scenecut=40 / intra_refresh=0 / rc_lookahead=50 / rc=2pass / mbtree=1 / bitrate=11992 / ratetol=1.0 / qcomp=0.60 / qpmin=0 / qpmax=69 / qpstep=4 / cplxblur=20.0 / qblur=0.5 / ip_ratio=1.40 / aq=1:1.00
Language                                 : English
Default                                  : Yes
Forced                                   : No

Audio
ID                                       : 2
Format                                   : DTS
Format/Info                              : Digital Theater Systems
Mode                                     : 16
Format settings, Endianness              : Big
Codec ID                                 : A_DTS
Duration                                 : 1h 24mn
Bit rate mode                            : Constant
Bit rate                                 : 960 Kbps
Channel(s)                               : 6 channels
Channel positions                        : Front: L C R, Side: L R, LFE
Sampling rate                            : 48.0 KHz
Frame rate                               : 93.750 fps (512 spf)
Bit depth                                : 24 bits
Compression mode                         : Lossy
Stream size                              : 581 MiB (7%)
Title                                    : DTS
Language                                 : English
Default                                  : Yes
Forced                                   : No

Menu
00:00:00.000                             : en:00:00:00.000
00:09:59.974                             : en:00:09:59.974
00:19:59.990                             : en:00:19:59.990
00:29:59.965                             : en:00:29:59.965
00:39:59.981                             : en:00:39:59.981
00:49:59.997                             : en:00:49:59.997
00:59:59.971                             : en:00:59:59.971
01:09:59.987                             : en:01:09:59.987
01:19:59.962                             : en:01:19:59.962






1 個附件 售價 大小 下載 時間

House.Rules.for.Bad.Girls.2009.1080p.BluRay.x264-PussyFoot[btbtt.co].torrent 0 金币 77.11K 686 次 14天前

#1樓
发帖時間:2017-01-10 10:19:49   |   回複數:4
blue23
超凡入聖№
感謝樓主分享
14天前 #2樓
911degrees
一代宗師
非常感謝,謝謝分享
14天前 #3樓
liyouchai
一代宗師
謝謝樓主分享資源
13天前 #4樓
zhao_paul
武林盟主
謝謝樓主分享影片!
12天前 #5樓
遊客組