aoloffline
版主

[更 早] [歐美] [犯罪] [BD-1080P] [BT下載]希基和伯格斯 Hickey.and.Boggs.1972.1080p.BluRay.x264-TARS 7.65GB

-->

◎譯  名 希基和伯格斯

◎片  名 Hickey & Boggs

◎年  代 1972

◎國  家 美國

◎類  別 犯罪/劇情/驚悚

◎語  言 英語

◎上映日期 1972

◎IMDb评分  6.5/10 from 771 users

◎IMDb链接  http://www.imdb.com/title/tt0068698/

◎BT之家整理  

◎片  长 111 分钟/Germany: 107 分钟

◎导  演 Robert Culp


◎簡  介


  Bill Cosby and Robert Culp ("I Spy") are united again as private eyes in this Walter Hill-scripted "film noir." Searching for a missing girl| they find themselvesinvolved with vicious criminals and precipitating a string of deaths.


Video
ID                                       : 1
Format                                   : AVC
Format/Info                              : Advanced Video Codec
Format profile                           : [email protected]
Format settings, CABAC                   : Yes
Format settings, ReFrames                : 4 frames
Codec ID                                 : V_MPEG4/ISO/AVC
Duration                                 : 1h 51mn
Bit rate                                 : 8 305 Kbps
Width                                    : 1 920 pixels
Height                                   : 1 040 pixels
Display aspect ratio                     : 1.85:1
Frame rate mode                          : Constant
Frame rate                               : 23.976 (24000/1001) fps
Color space                              : YUV
Chroma subsampling                       : 4:2:0
Bit depth                                : 8 bits
Scan type                                : Progressive
Bits/(Pixel*Frame)                       : 0.173
Stream size                              : 6.47 GiB (85%)
Writing library                          : x264 core 142 r2491kMod 24e4fed
Encoding settings                        : cabac=1 / ref=4 / deblock=1:-3:-3 / analyse=0x3:0x113 / me=umh / subme=8 / psy=1 / fade_compensate=0.00 / psy_rd=1.10:0.00 / mixed_ref=1 / me_range=16 / chroma_me=1 / trellis=1 / 8x8dct=1 / cqm=0 / deadzone=21,11 / fast_pskip=1 / chroma_qp_offset=-2 / threads=18 / lookahead_threads=3 / sliced_threads=0 / nr=0 / decimate=1 / interlaced=0 / bluray_compat=0 / constrained_intra=0 / fgo=0 / bframes=3 / b_pyramid=2 / b_adapt=2 / b_bias=0 / direct=3 / weightb=1 / open_gop=0 / weightp=2 / keyint=240 / keyint_min=24 / scenecut=40 / intra_refresh=0 / rc_lookahead=50 / rc=2pass / mbtree=1 / bitrate=8305 / ratetol=1.0 / qcomp=0.60 / qpmin=0 / qpmax=69 / qpstep=4 / cplxblur=20.0 / qblur=0.5 / ip_ratio=1.40 / aq=1:0.75
Language                                 : English
Default                                  : Yes
Forced                                   : No

Audio
ID                                       : 2
Format                                   : DTS
Format/Info                              : Digital Theater Systems
Mode                                     : 16
Format settings, Endianness              : Big
Codec ID                                 : A_DTS
Duration                                 : 1h 51mn
Bit rate mode                            : Constant
Bit rate                                 : 1 509 Kbps
Channel(s)                               : 2 channels
Channel positions                        : Front: L R
Sampling rate                            : 48.0 KHz
Frame rate                               : 93.750 fps (512 spf)
Bit depth                                : 24 bits
Compression mode                         : Lossy
Delay relative to video                  : 11s 11ms
Stream size                              : 1.17 GiB (15%)
Language                                 : English
Default                                  : Yes
Forced                                   : No

Menu
00:00:00.000                             : en:00:00:00.000
00:13:24.178                             : en:00:13:24.178
00:23:12.850                             : en:00:23:12.850
00:34:20.100                             : en:00:34:20.100
00:49:13.576                             : en:00:49:13.576
01:11:31.662                             : en:01:11:31.662
01:24:18.303                             : en:01:24:18.303
01:31:18.723                             : en:01:31:18.723





1 個附件 售價 大小 下載 時間

Hickey.and.Boggs.1972.1080p.BluRay.x264-TARS[btbtt.co].torrent 0 金币 77.09K 494 次 3月前

#1樓
請幫忙分享到: | Twitter | Google+ | 微博 | 更多… 发帖時間:2017-01-09 23:56:15   |   回複數:3
911degrees
一代宗師
非常感謝,謝謝分享
3月前 #2樓
blue23
超凡入聖№
感謝樓主分享
3月前 #3樓
liyouchai
超凡入聖№
謝謝樓主分享資源
3月前 #4樓
遊客組