aoloffline
版主

[2013] [歐美] [犯罪] [BD-1080P] [BT下載]直布罗陀 Gibraltar.2013.1080p.BluRay.x264-FAPCAVE 7.94GB

-->

◎譯  名 直布羅陀

◎片  名 Gibraltar

◎年  代 2013

◎國  家 法國

◎類  別 驚悚/犯罪

◎語  言 法語

◎上映日期 2013-09-11(法國)

◎IMDb评分  6.3/10 from 998 users

◎IMDb链接  http://www.imdb.com/title/tt2121304/

◎豆瓣评分 6.2/10 from 17 users

◎豆瓣鏈接 https://movie.douban.com/subject/10749976/

◎BT之家整理  

◎片  長 110分鍾

◎导  演 朱莉安·勒克莱克 Julien Leclercq

◎主  演 吉尔·勒卢什 Gilles Lellouche

      塔哈·拉希姆 Tahar Rahim

      里卡多·斯卡马里奥 Riccardo Scamarcio

      拉法埃尔·阿贡吉 Rapha?lle Agogué

      梅兰妮·贝尔内尔 Mélanie Bernier


◎簡  介


  “永遠撒謊、永不背叛”。住在直布羅陀的法國人馬克·杜瓦爾,爲了讓家人有足夠的生活來源,成了法國海關的臥底。從小宗毒品交易到貨車運毒,他漸漸地得到了一個與哥倫比亞毒品組織有聯系的大可卡因毒販克勞迪歐·朗弗萊迪的信任。越來越深入毒枭世界讓馬克的風險越來越大。但隨著馬克在毒品組織的位置越爬越高,他也發現了奢華生活與來得容易的錢......一直生活在刀鋒上,只有謊言才讓他依然活著。當英國警察爲了逮捕朗弗萊迪而介入時,危險變得更大,而且他的家人有可能爲此付出代價。


Video
ID                                       : 1
Format                                   : AVC
Format/Info                              : Advanced Video Codec
Format profile                           : [email protected]
Format settings, CABAC                   : Yes
Format settings, ReFrames                : 5 frames
Codec ID                                 : V_MPEG4/ISO/AVC
Duration                                 : 1h 55mn
Bit rate                                 : 8 312 Kbps
Width                                    : 1 920 pixels
Height                                   : 800 pixels
Display aspect ratio                     : 2.40:1
Frame rate mode                          : Constant
Frame rate                               : 24.000 fps
Color space                              : YUV
Chroma subsampling                       : 4:2:0
Bit depth                                : 8 bits
Scan type                                : Progressive
Bits/(Pixel*Frame)                       : 0.225
Stream size                              : 6.72 GiB (85%)
Writing library                          : x264 core 142 r2453 ea0ca51
Encoding settings                        : cabac=1 / ref=5 / deblock=1:0:0 / analyse=0x3:0x133 / me=umh / subme=8 / psy=1 / psy_rd=1.00:0.00 / mixed_ref=1 / me_range=16 / chroma_me=1 / trellis=1 / 8x8dct=1 / cqm=0 / deadzone=21,11 / fast_pskip=0 / chroma_qp_offset=-2 / threads=12 / lookahead_threads=2 / sliced_threads=0 / nr=0 / decimate=1 / interlaced=0 / bluray_compat=0 / constrained_intra=0 / bframes=3 / b_pyramid=2 / b_adapt=2 / b_bias=0 / direct=3 / weightb=1 / open_gop=0 / weightp=2 / keyint=250 / keyint_min=24 / scenecut=40 / intra_refresh=0 / rc_lookahead=50 / rc=2pass / mbtree=1 / bitrate=8312 / ratetol=1.0 / qcomp=0.60 / qpmin=0 / qpmax=69 / qpstep=4 / cplxblur=20.0 / qblur=0.5 / ip_ratio=1.40 / aq=1:1.00
Language                                 : English
Default                                  : Yes
Forced                                   : No

Audio
ID                                       : 2
Format                                   : DTS
Format/Info                              : Digital Theater Systems
Mode                                     : 16
Format settings, Endianness              : Big
Codec ID                                 : A_DTS
Duration                                 : 1h 55mn
Bit rate mode                            : Constant
Bit rate                                 : 1 509 Kbps
Channel(s)                               : 6 channels
Channel positions                        : Front: L C R, Side: L R, LFE
Sampling rate                            : 48.0 KHz
Frame rate                               : 93.750 fps (512 spf)
Bit depth                                : 24 bits
Compression mode                         : Lossy
Stream size                              : 1.22 GiB (15%)
Default                                  : Yes
Forced                                   : No

Text
ID                                       : 3
Format                                   : UTF-8
Codec ID                                 : S_TEXT/UTF8
Codec ID/Info                            : UTF-8 Plain Text
Duration                                 : 1h 54mn
Bit rate                                 : 27 bps
Count of elements                        : 923
Stream size                              : 23.1 KiB (0%)
Language                                 : English
Default                                  : Yes
Forced                                   : No

Menu
00:00:00.000                             : en:00:00:00.000
00:08:10.000                             : en:00:08:10.000
00:18:40.500                             : en:00:18:40.500
00:26:20.375                             : en:00:26:20.375
00:37:08.833                             : en:00:37:08.833
00:46:20.292                             : en:00:46:20.292
00:54:47.083                             : en:00:54:47.083
01:06:37.833                             : en:01:06:37.833
01:15:46.125                             : en:01:15:46.125
01:25:46.375                             : en:01:25:46.375
01:37:10.125                             : en:01:37:10.125
01:49:26.167                             : en:01:49:26.167






1 個附件 售價 大小 下載 時間

Gibraltar.2013.1080p.BluRay.x264-FAPCAVE[btbtt.co].torrent 0 金币 80.01K 925 次 4月前

#1樓
請幫忙分享到: | Twitter | Google+ | 微博 | 更多… 发帖時間:2017-01-09 23:48:25   |   回複數:4
blue23
超凡入聖№
感謝樓主分享
4月前 #2樓
911degrees
一代宗師
非常感謝,謝謝分享
4月前 #3樓
ditintie
武林高手
好睇...
4月前 #4樓
liyouchai
超凡入聖№
謝謝樓主分享資源
4月前 #5樓
遊客組