aoloffline
版主

[更 早] [歐美] [劇情] [BD-1080P] [BT下載]面包 Bread.1971.1080p.BluRay.x264-KaKa 6.56GB

-->

◎譯  名 面包

◎片  名 Bread

◎年  代 1971

◎國  家 英國

◎類  別 歌舞

◎語  言 英語

◎上映日期 1971

◎IMDb评分  5.4/10 from 49 users

◎IMDb链接  http://www.imdb.com/title/tt0233375/

◎BT之家整理  

◎导  演 Stanley A. Long


◎簡  介


  On their way home from the Isle of Wight Pop Festival| Jeff| Trev and Mick along with girlfriends Marty and Cathy decide to pitch a tent on private land. In themorning the land's owner Rafe turns up and orders them to get off his lawn but changes his mind when one of the girls emerges naked from the tent. Rafe explains heonly comes down to the house at weekends and lets them stay providing they redecorate his house. The squatters agree but once Rafe leaves they plot to organize a popfestival at the house. Attempting to raise cash for the venture| the men coerce their girlfriends into making a blue movie. When this proves disastrous Jeff goes toLondon and poses as a pop journalist in order to book the groups "Crazy Mabel" and "The Juicy Lucy" for the festival.



Video
ID                                       : 1
Format                                   : AVC
Format/Info                              : Advanced Video Codec
Format profile                           : [email protected]
Format settings, CABAC                   : Yes
Format settings, ReFrames                : 4 frames
Codec ID                                 : V_MPEG4/ISO/AVC
Duration                                 : 1h 31mn
Bit rate                                 : 10.1 Mbps
Width                                    : 1 440 pixels
Height                                   : 1 080 pixels
Display aspect ratio                     : 4:3
Frame rate mode                          : Constant
Frame rate                               : 23.976 (24000/1001) fps
Color space                              : YUV
Chroma subsampling                       : 4:2:0
Bit depth                                : 8 bits
Scan type                                : Progressive
Bits/(Pixel*Frame)                       : 0.270
Stream size                              : 6.31 GiB (96%)
Writing library                          : x264 core 110 r1803 04b5966
Encoding settings                        : cabac=1 / ref=4 / deblock=1:-1:-1 / analyse=0x3:0x113 / me=umh / subme=7 / psy=1 / psy_rd=1.00:0.00 / mixed_ref=1 / me_range=16 / chroma_me=1 / trellis=1 / 8x8dct=1 / cqm=0 / deadzone=21,11 / fast_pskip=1 / chroma_qp_offset=-2 / threads=12 / sliced_threads=0 / nr=0 / decimate=1 / interlaced=0 / constrained_intra=0 / bframes=3 / b_pyramid=2 / b_adapt=2 / b_bias=0 / direct=3 / weightb=1 / open_gop=0 / weightp=2 / keyint=250 / keyint_min=23 / scenecut=40 / intra_refresh=0 / rc_lookahead=40 / rc=2pass / mbtree=1 / bitrate=10056 / ratetol=1.0 / qcomp=0.60 / qpmin=0 / qpmax=51 / qpstep=4 / cplxblur=20.0 / qblur=0.5 / vbv_maxrate=50000 / vbv_bufsize=50000 / ip_ratio=1.40 / aq=1:1.00 / nal_hrd=none
Language                                 : English
Default                                  : Yes
Forced                                   : Yes

Audio
ID                                       : 2
Format                                   : AC-3
Format/Info                              : Audio Coding 3
Mode extension                           : CM (complete main)
Format settings, Endianness              : Big
Codec ID                                 : A_AC3
Duration                                 : 1h 31mn
Bit rate mode                            : Constant
Bit rate                                 : 192 Kbps
Channel(s)                               : 2 channels
Channel positions                        : Front: L R
Sampling rate                            : 48.0 KHz
Frame rate                               : 31.250 fps (1536 spf)
Compression mode                         : Lossy
Stream size                              : 126 MiB (2%)
Language                                 : English
Default                                  : Yes
Forced                                   : Yes





1 個附件 售價 大小 下載 時間

Bread.1971.1080p.BluRay.x264-KaKa[btbtt.co].torrent 0 金币 66.12K 476 次 1月前

#1樓
发帖時間:2017-01-09 23:18:02   |   回複數:4
blue23
超凡入聖№
感謝樓主分享
1月前 #2樓
chulps
一代宗師
good ... Thanks a lot ! 感谢楼主 ! 感谢 !
1月前 #3樓
911degrees
一代宗師
非常感謝,謝謝分享
1月前 #4樓
liyouchai
一代宗師
謝謝樓主分享資源
1月前 #5樓
遊客組