aoloffline
版主

[2012] [歐美] [紀錄] [BD-1080P] [BT下載]世界文化遗产-吴哥窟 Angkor.Wat.2012.Part1.1080p.BluRay.x264-PussyFoot 4.37GB

-->


http://imdb.com/title/tt2604224/


吴哥窟又称吴哥寺,位在柬埔寨西北方。原始的名字是Vrah Vishnulok,意思为“毗湿奴的神殿”。中国古籍称为“桑香佛舍”。它是吴哥古迹中保存得最完好的的庙宇,以建筑宏伟与浮雕细致闻名于世,也是世界上最大的庙宇。

  吳哥窟是高棉古典建築藝術的高峰,它結合了高棉寺廟建築學的兩個基本的布局:祭壇和回廊。祭壇由三層長方形有回廊環繞須彌台組成,一層比一層高,象征印度神話中位于世界中心的須彌山。在祭壇頂部矗立著按五點梅花式排列的五座寶塔,象征須彌山的五座山峰。寺廟外圍環繞一道護城河,象征環繞須彌山的鹹海。

  在影视作品中,吴哥窟大多是以教科书的形式呈现的,世界著名的国家地理和探索频道相继制作了介绍吴哥窟的长篇电视片。在柬埔寨国内,吴哥窟曾出现在许多国产電影中。但是由于柬埔寨自身電影工业较为落后,所以这些影片并没能成为经典。電影《神鬼传奇》的主线情节是围绕“木乃伊”展开的,并不能与吴哥窟进行关联,这也的确是一种遗憾。


Video
ID                                       : 1
Format                                   : AVC
Format/Info                              : Advanced Video Codec
Format profile                           : [email protected]
Format settings, CABAC                   : Yes
Format settings, ReFrames                : 4 frames
Codec ID                                 : V_MPEG4/ISO/AVC
Duration                                 : 45mn 57s
Bit rate                                 : 12.1 Mbps
Width                                    : 1 920 pixels
Height                                   : 1 080 pixels
Display aspect ratio                     : 16:9
Frame rate mode                          : Constant
Frame rate                               : 23.976 (24000/1001) fps
Color space                              : YUV
Chroma subsampling                       : 4:2:0
Bit depth                                : 8 bits
Scan type                                : Progressive
Bits/(Pixel*Frame)                       : 0.244
Stream size                              : 3.80 GiB (87%)
Writing library                          : x264 core 148 r2665 a01e339
Encoding settings                        : cabac=1 / ref=4 / deblock=1:-2:-2 / analyse=0x3:0x113 / me=umh / subme=8 / psy=1 / psy_rd=1.00:0.00 / mixed_ref=1 / me_range=16 / chroma_me=1 / trellis=1 / 8x8dct=1 / cqm=0 / deadzone=21,11 / fast_pskip=1 / chroma_qp_offset=-2 / threads=12 / lookahead_threads=2 / sliced_threads=0 / nr=0 / decimate=1 / interlaced=0 / bluray_compat=0 / constrained_intra=0 / bframes=3 / b_pyramid=2 / b_adapt=2 / b_bias=0 / direct=3 / weightb=1 / open_gop=0 / weightp=2 / keyint=240 / keyint_min=24 / scenecut=40 / intra_refresh=0 / rc_lookahead=50 / rc=2pass / mbtree=1 / bitrate=12106 / ratetol=1.0 / qcomp=0.60 / qpmin=0 / qpmax=69 / qpstep=4 / cplxblur=20.0 / qblur=0.5 / ip_ratio=1.40 / aq=1:1.00
Language                                 : English
Default                                  : Yes
Forced                                   : No

Audio
ID                                       : 2
Format                                   : DTS
Format/Info                              : Digital Theater Systems
Mode                                     : 16
Format settings, Endianness              : Big
Codec ID                                 : A_DTS
Duration                                 : 45mn 57s
Bit rate mode                            : Constant
Bit rate                                 : 1 509 Kbps
Channel(s)                               : 6 channels
Channel positions                        : Front: L C R, Side: L R, LFE
Sampling rate                            : 48.0 KHz
Frame rate                               : 93.750 fps (512 spf)
Bit depth                                : 24 bits
Compression mode                         : Lossy
Stream size                              : 496 MiB (11%)
Language                                 : English
Default                                  : Yes
Forced                                   : No

Menu
00:00:00.000                             : en:00:00:00.000
00:03:23.662                             : en:00:03:23.662
00:13:18.047                             : en:00:13:18.047
00:23:08.137                             : en:00:23:08.137
00:29:54.251                             : en:00:29:54.251
00:38:19.881                             : en:00:38:19.881





1 個附件 售價 大小 下載 時間

Angkor.Wat.2012.Part1.1080p.BluRay.x264-PussyFoot[btbtt.co].torrent 0 金币 87.99K 3579 次 3月前

#1樓
請幫忙分享到: | Twitter | Google+ | 微博 | 更多… 发帖時間:2017-01-09 23:03:24   |   回複數:4
blue23
超凡入聖№
感謝樓主分享
3月前 #2樓
albb2188
武林高手
感謝樓主提供分享影片資源!
3月前 #3樓
liyouchai
超凡入聖№
謝謝樓主分享資源
3月前 #4樓
zangkeli
小有名氣
感謝分享!!!
2月前 #5樓
遊客組