aoloffline
版主

[2016] [歐美] [懸疑] [Remux] [BT下載]火车上的女孩 2016.1080p.BluRay.REMUX.AVC.DTS-HD.MA.7.1-FGT 32.19GB

-->

◎譯  名 火車上的女孩/列車上的女孩(台)

◎片  名 The Girl on the Train

◎年  代 2016

◎國  家 美國

◎類  別 懸疑/驚悚

◎語  言 英語

◎上映日期 2016-10-07(美國)/2016-10-05(英國)

◎IMDb评分  6.6/10 from 40,883 users

◎IMDb链接  http://www.imdb.com/title/tt3631112/

◎豆瓣评分 6.4/10 from 2,982 users

◎豆瓣鏈接 https://movie.douban.com/subject/26413089/

◎BT之家整理   

◎片  長 112分鍾

◎导  演 泰特·泰勒 Tate Taylor

◎主  演 艾米莉·布朗特 Emily Blunt

      卢克·伊万斯 Luke Evans

      海莉·贝内特 Haley Bennett

      丽贝卡·弗格森 Rebecca Ferguson

      贾斯汀·塞洛克斯 Justin Theroux

      埃德加·拉米雷兹 dgar Ramírez

      艾莉森·珍妮 Allison Janney

      丽莎·库卓 Lisa Kudrow

      达伦·戈德斯坦 Darren Goldstein

      罗斯·吉比 Ross Gibby

      劳拉·普莱潘 Laura Prepon


◎簡  介


  《列車上的女孩》講述一個剛剛離婚、整天酗酒的倫敦女人蕾切爾(Rachel),她每天早上坐火車都會經過一對夫妻的房子,那對夫妻看上去十分完美,直到有一天蕾切爾發現妻子不見了,蕾切爾懷疑她被人害了,于是開始沈迷于對此事的調查。


◎獲獎情況


  第23届美国演员工会奖  (2017)

  電影奖 最佳女主角(提名) 艾米莉·布朗特


Video
ID                                       : 1
Format                                   : AVC
Format/Info                              : Advanced Video Codec
Format profile                           : [email protected]
Format settings, CABAC                   : Yes
Format settings, ReFrames                : 4 frames
Codec ID                                 : V_MPEG4/ISO/AVC
Duration                                 : 1h 52mn
Bit rate mode                            : Variable
Maximum bit rate                         : 34.2 Mbps
Width                                    : 1 920 pixels
Height                                   : 1 080 pixels
Display aspect ratio                     : 16:9
Frame rate mode                          : Constant
Frame rate                               : 23.976 (24000/1001) fps
Color space                              : YUV
Chroma subsampling                       : 4:2:0
Bit depth                                : 8 bits
Scan type                                : Progressive
Title                                    : The.Girl.on.the.Train.2016.1080p.BluRay.REMUX.AVC.DTS-HD.MA.7.1-FGT
Language                                 : English
Default                                  : No
Forced                                   : No

Audio #1
ID                                       : 2
Format                                   : DTS
Format/Info                              : Digital Theater Systems
Format profile                           : X / MA / Core
Mode                                     : 16
Format settings, Endianness              : Big
Codec ID                                 : A_DTS
Bit rate mode                            : Variable / Variable / Constant
Bit rate                                 : Unknown / Unknown / 1 509 Kbps
Channel(s)                               : Object Based / 8 channels / 6 channels
Channel positions                        : Object Based / Front: L C R, Side: L R, Back: L R, LFE / Front: L C R, Side: L R, LFE
Sampling rate                            :  / 48.0 KHz / 48.0 KHz
Frame rate                               : 93.750 fps (512 spf)
Bit depth                                :  / 24 bits / 24 bits
Compression mode                         :  / Lossless / Lossy
Title                                    : The.Girl.on.the.Train.2016.1080p.BluRay.REMUX.AVC.DTS-HD.MA.7.1-FGT
Language                                 : English
Default                                  : Yes
Forced                                   : No

Audio #2
ID                                       : 3
Format                                   : DTS
Format/Info                              : Digital Theater Systems
Mode                                     : 16
Format settings, Endianness              : Big
Codec ID                                 : A_DTS
Duration                                 : 1h 52mn
Bit rate mode                            : Constant
Bit rate                                 : 1 509 Kbps
Channel(s)                               : 6 channels
Channel positions                        : Front: L C R, Side: L R, LFE
Sampling rate                            : 48.0 KHz
Frame rate                               : 93.750 fps (512 spf)
Bit depth                                : 24 bits
Compression mode                         : Lossy
Stream size                              : 1.18 GiB (4%)
Title                                    : The.Girl.on.the.Train.2016.1080p.BluRay.REMUX.AVC.DTS-HD.MA.7.1-FGT
Language                                 : English
Default                                  : No
Forced                                   : No

Audio #3
ID                                       : 4
Format                                   : DTS
Format/Info                              : Digital Theater Systems
Mode                                     : 16
Format settings, Endianness              : Big
Codec ID                                 : A_DTS
Duration                                 : 1h 52mn
Bit rate mode                            : Constant
Bit rate                                 : 1 509 Kbps
Channel(s)                               : 2 channels
Channel positions                        : Front: L R
Sampling rate                            : 48.0 KHz
Frame rate                               : 93.750 fps (512 spf)
Bit depth                                : 24 bits
Compression mode                         : Lossy
Stream size                              : 1.18 GiB (4%)
Title                                    : The.Girl.on.the.Train.2016.1080p.BluRay.REMUX.AVC.DTS-HD.MA.7.1-FGT
Language                                 : English
Default                                  : No
Forced                                   : No

Audio #4
ID                                       : 5
Format                                   : DTS
Format/Info                              : Digital Theater Systems
Mode                                     : 16
Format settings, Endianness              : Big
Codec ID                                 : A_DTS
Duration                                 : 1h 52mn
Bit rate mode                            : Constant
Bit rate                                 : 768 Kbps
Channel(s)                               : 6 channels
Channel positions                        : Front: L C R, Side: L R, LFE
Sampling rate                            : 48.0 KHz
Frame rate                               : 93.750 fps (512 spf)
Bit depth                                : 24 bits
Compression mode                         : Lossy
Stream size                              : 616 MiB (2%)
Title                                    : The.Girl.on.the.Train.2016.1080p.BluRay.REMUX.AVC.DTS-HD.MA.7.1-FGT
Language                                 : Spanish
Default                                  : No
Forced                                   : No

Audio #5
ID                                       : 6
Format                                   : DTS
Format/Info                              : Digital Theater Systems
Mode                                     : 16
Format settings, Endianness              : Big
Codec ID                                 : A_DTS
Duration                                 : 1h 52mn
Bit rate mode                            : Constant
Bit rate                                 : 768 Kbps
Channel(s)                               : 6 channels
Channel positions                        : Front: L C R, Side: L R, LFE
Sampling rate                            : 48.0 KHz
Frame rate                               : 93.750 fps (512 spf)
Bit depth                                : 24 bits
Compression mode                         : Lossy
Stream size                              : 616 MiB (2%)
Title                                    : The.Girl.on.the.Train.2016.1080p.BluRay.REMUX.AVC.DTS-HD.MA.7.1-FGT
Language                                 : French
Default                                  : No
Forced                                   : No

Audio #6
ID                                       : 7
Format                                   : AC-3
Format/Info                              : Audio Coding 3
Format profile                           : Dolby Digital
Mode extension                           : CM (complete main)
Format settings, Endianness              : Big
Codec ID                                 : A_AC3
Duration                                 : 1h 52mn
Bit rate mode                            : Constant
Bit rate                                 : 192 Kbps
Channel(s)                               : 2 channels
Channel positions                        : Front: L R
Sampling rate                            : 48.0 KHz
Frame rate                               : 31.250 fps (1536 spf)
Compression mode                         : Lossy
Delay relative to video                  : 15ms
Stream size                              : 154 MiB (0%)
Title                                    : The.Girl.on.the.Train.2016.1080p.BluRay.REMUX.AVC.DTS-HD.MA.7.1-FGT
Language                                 : English
Default                                  : No
Forced                                   : No

Audio #7
ID                                       : 8
Format                                   : AC-3
Format/Info                              : Audio Coding 3
Format profile                           : Dolby Digital
Mode extension                           : CM (complete main)
Format settings, Endianness              : Big
Codec ID                                 : A_AC3
Duration                                 : 1h 52mn
Bit rate mode                            : Constant
Bit rate                                 : 192 Kbps
Channel(s)                               : 2 channels
Channel positions                        : Front: L R
Sampling rate                            : 48.0 KHz
Frame rate                               : 31.250 fps (1536 spf)
Compression mode                         : Lossy
Delay relative to video                  : 15ms
Stream size                              : 154 MiB (0%)
Title                                    : The.Girl.on.the.Train.2016.1080p.BluRay.REMUX.AVC.DTS-HD.MA.7.1-FGT
Language                                 : English
Default                                  : No
Forced                                   : No

Text #1
ID                                       : 9
Format                                   : PGS
Muxing mode                              : zlib
Codec ID                                 : S_HDMV/PGS
Codec ID/Info                            : Picture based subtitle format used on BDs/HD-DVDs
Title                                    : English-PGS
Language                                 : English
Default                                  : No
Forced                                   : No

Text #2
ID                                       : 10
Format                                   : PGS
Muxing mode                              : zlib
Codec ID                                 : S_HDMV/PGS
Codec ID/Info                            : Picture based subtitle format used on BDs/HD-DVDs
Title                                    : Spanish-PGS
Language                                 : Spanish
Default                                  : No
Forced                                   : No

Text #3
ID                                       : 11
Format                                   : PGS
Muxing mode                              : zlib
Codec ID                                 : S_HDMV/PGS
Codec ID/Info                            : Picture based subtitle format used on BDs/HD-DVDs
Title                                    : French-PGS
Language                                 : French
Default                                  : No
Forced                                   : No

Text #4
ID                                       : 12
Format                                   : PGS
Muxing mode                              : zlib
Codec ID                                 : S_HDMV/PGS
Codec ID/Info                            : Picture based subtitle format used on BDs/HD-DVDs
Title                                    : Spanish-FORCED-PGS
Language                                 : Spanish
Default                                  : No
Forced                                   : No

Text #5
ID                                       : 13
Format                                   : PGS
Muxing mode                              : zlib
Codec ID                                 : S_HDMV/PGS
Codec ID/Info                            : Picture based subtitle format used on BDs/HD-DVDs
Title                                    : French-FORCED-PGS
Language                                 : French
Default                                  : No
Forced                                   : No

Text #6
ID                                       : 14
Format                                   : PGS
Muxing mode                              : zlib
Codec ID                                 : S_HDMV/PGS
Codec ID/Info                            : Picture based subtitle format used on BDs/HD-DVDs
Title                                    : English-FORCED-PGS
Language                                 : English
Default                                  : No
Forced                                   : No

Menu
00:00:00.000                             : en:Chapter 01
00:06:01.778                             : en:Chapter 02
00:09:29.902                             : en:Chapter 03
00:18:15.969                             : en:Chapter 04
00:25:26.149                             : en:Chapter 05
00:32:04.505                             : en:Chapter 06
00:37:04.972                             : en:Chapter 07
00:44:52.314                             : en:Chapter 08
00:49:22.459                             : en:Chapter 09
00:55:07.012                             : en:Chapter 10
00:59:36.030                             : en:Chapter 11
01:03:34.811                             : en:Chapter 12
01:09:25.786                             : en:Chapter 13
01:14:36.430                             : en:Chapter 14
01:19:08.702                             : en:Chapter 15
01:23:44.728                             : en:Chapter 16
01:28:07.490                             : en:Chapter 17
01:33:49.457                             : en:Chapter 18
01:38:54.553                             : en:Chapter 19

01:45:55.182                             : en:Chapter 20





1 個附件 售價 大小 下載 時間

The.Girl.on.the.Train.2016.1080p.BluRay.REMUX.AVC.DTS-HD.MA.7.1-FGT[btbtt.co].torrent 0 金币 81.12K 1856 次 2月前

#1樓
发帖時間:2017-01-08 23:49:13   |   回複數:6
qijing1006
版主
 《列車上的女孩》講述一個剛剛離婚、整天酗酒的倫敦女人蕾切爾(Rachel),她每天早上坐火車都會經過一對夫妻的房子,那對夫妻看上去十分完美,直到有一天蕾切爾發現妻子不見了,蕾切爾懷疑她被人害了,于是開始沈迷于對此事的調查。
2月前 #2樓
blue23
超凡入聖№
感謝樓主分享
2月前 #3樓
liyouchai
超凡入聖№
謝謝樓主分享資源
2月前 #4樓
911degrees
一代宗師
非常感謝,謝謝分享
2月前 #5樓
zma729
武林高手
good ... Thanks a lot ! 感谢楼主 ! 感谢 !
2月前 #6樓
wrcgww
一派掌門
感謝樓主分享
2月前 #7樓
遊客組