aoloffline
版主

[2010] [歐美] [恐怖] [BD-1080P] [BT下載]僵尸启示录:救赎 Zombie.Apocalypse.Redemption.2010.1080p.BluRay.x264.DTS-FGT 6.5GB

-->

◎譯  名 僵屍啓示錄:救贖/僵屍末日

◎片  名 Zombie Apocalypse

◎年  代 2011

◎國  家 美國/英國

◎類  別 動作/恐怖

◎語  言 英語

◎上映日期 2011-10-09(美國)

◎IMDb评分  4.0/10 from 4,422 users

◎IMDb链接  http://www.imdb.com/title/tt1876547/

◎豆瓣评分 3.9/10 from 944 users

◎豆瓣鏈接 https://movie.douban.com/subject/6964060/

◎BT之家整理 

◎片  長 86分鍾

◎导  演 尼克里昂 Nick Lyon

◎主  演 文·瑞姆斯

      塔恩·曼甯

      萊斯麗-安·布萊德

      Gary Weeks


◎簡  介


  近未來,一種代號名爲VM2開始在全球蔓延,短短六個月的時間,VM2幾乎覆蓋全球每一個角落,所有被感染者全部化身爲凶惡殘暴、嗜血如命的恐怖喪屍。被喪屍咬過的人也在很短時間內變成狩獵者的同類,人類文明毀滅殆盡。

  某天,凯文(Gerald Webb 饰)等三个青年男女流浪到一 个无名小镇,结果遭到大批丧尸的攻击。危急时刻,他们得到马克(Gary Weeks 饰)、汉瑞(Ving Rhames 饰)、朱利安(Johnny Pacar 饰)等配备精良的人士的救助。他们各自经历了难以想象的磨难,如今团结在一起与丧尸抗争,并向着人类最后一片净土——卡特里娜岛前进。可是在前方,无数的丧尸正等待着他们……



Video
ID                                       : 1
Format                                   : AVC
Format/Info                              : Advanced Video Codec
Format profile                           : [email protected]
Format settings, CABAC                   : Yes
Format settings, ReFrames                : 4 frames
Codec ID                                 : V_MPEG4/ISO/AVC
Duration                                 : 1h 41mn
Bit rate                                 : 7 515 Kbps
Width                                    : 1 920 pixels
Height                                   : 1 080 pixels
Display aspect ratio                     : 16:9
Frame rate mode                          : Constant
Frame rate                               : 23.976 (24000/1001) fps
Color space                              : YUV
Chroma subsampling                       : 4:2:0
Bit depth                                : 8 bits
Scan type                                : Progressive
Bits/(Pixel*Frame)                       : 0.151
Stream size                              : 5.33 GiB (82%)
Writing library                          : x264 core 144 r2525 40bb568
Encoding settings                        : cabac=1 / ref=4 / deblock=1:-1:-1 / analyse=0x3:0x133 / me=umh / subme=7 / psy=1 / psy_rd=1.00:0.15 / mixed_ref=1 / me_range=16 / chroma_me=1 / trellis=1 / 8x8dct=1 / cqm=0 / deadzone=21,11 / fast_pskip=0 / chroma_qp_offset=-3 / threads=6 / lookahead_threads=1 / sliced_threads=0 / nr=0 / decimate=1 / interlaced=0 / bluray_compat=0 / constrained_intra=0 / bframes=3 / b_pyramid=2 / b_adapt=1 / b_bias=0 / direct=1 / weightb=1 / open_gop=0 / weightp=2 / keyint=250 / keyint_min=23 / scenecut=40 / intra_refresh=0 / rc_lookahead=40 / rc=crf / mbtree=1 / crf=20.0 / qcomp=0.60 / qpmin=0 / qpmax=69 / qpstep=4 / ip_ratio=1.40 / aq=1:1.00
Default                                  : Yes
Forced                                   : No

Audio
ID                                       : 2
Format                                   : DTS
Format/Info                              : Digital Theater Systems
Mode                                     : 16
Format settings, Endianness              : Big
Codec ID                                 : A_DTS
Duration                                 : 1h 41mn
Bit rate mode                            : Constant
Bit rate                                 : 1 509 Kbps
Channel(s)                               : 6 channels
Channel positions                        : Front: L C R, Side: L R, LFE
Sampling rate                            : 48.0 KHz
Frame rate                               : 93.750 fps (512 spf)
Bit depth                                : 16 bits
Compression mode                         : Lossy
Stream size                              : 1.07 GiB (16%)
Language                                 : English
Default                                  : Yes
Forced                                   : No

Menu
00:00:00.000                             : en:00:00:00.000
00:07:59.938                             : en:00:07:59.938
00:15:59.959                             : en:00:15:59.959
00:23:59.938                             : en:00:23:59.938
00:31:59.960                             : en:00:31:59.960
00:39:59.981                             : en:00:39:59.981
00:47:59.919                             : en:00:47:59.919
00:55:59.898                             : en:00:55:59.898
01:03:59.919                             : en:01:03:59.919
01:11:59.941                             : en:01:11:59.941
01:19:59.920                             : en:01:19:59.920
01:29:59.936                             : en:01:29:59.936





1 個附件 售價 大小 下載 時間

Zombie.Apocalypse.Redemption.2010.1080p.BluRay.x264.DTS-FGT[btbtt.co].torrent 0 金币 65.92K 876 次 14天前

#1樓
发帖時間:2017-01-08 10:09:25   |   回複數:3
blue23
超凡入聖№
感謝樓主分享
14天前 #2樓
911degrees
一代宗師
非常感謝,謝謝分享
14天前 #3樓
liyouchai
一代宗師
謝謝樓主分享資源
14天前 #4樓
遊客組