aoloffline
版主

[更 早] [歐美] [喜劇] [BD-1080P] [BT下載]圣特罗佩之路 Road.To.St.Tropez.1966.1080p.Bluray.X264-7SinS 4.37GB

-->

◎譯  名 聖特羅佩之路

◎片  名 Road to Saint Tropez

◎年  代 1966

◎國  家 英國

◎類  別 喜劇/短片

◎語  言 英語

◎IMDb评分  6.8/10 from 35 users

◎IMDb链接  http://www.imdb.com/title/tt0060904/

◎BT之家整理

◎片  長 31分鍾

◎导  演 Michael Sarne


◎簡  介


  None



Video
ID                                       : 1
Format                                   : AVC
Format/Info                              : Advanced Video Codec
Format profile                           : [email protected]
Format settings, CABAC                   : Yes
Format settings, ReFrames                : 5 frames
Codec ID                                 : V_MPEG4/ISO/AVC
Duration                                 : 1h 7mn
Bit rate                                 : 8 751 Kbps
Width                                    : 1 920 pixels
Height                                   : 816 pixels
Display aspect ratio                     : 2.35:1
Frame rate mode                          : Constant
Frame rate                               : 23.976 (24000/1001) fps
Original frame rate                      : 23.976 (23976/1000) fps
Color space                              : YUV
Chroma subsampling                       : 4:2:0
Bit depth                                : 8 bits
Scan type                                : Progressive
Bits/(Pixel*Frame)                       : 0.233
Stream size                              : 4.07 GiB (93%)
Writing library                          : x264 core 115 r1947 b5a8ad7
Encoding settings                        : cabac=1 / ref=5 / deblock=1:0:0 / analyse=0x3:0x133 / me=umh / subme=7 / psy=1 / psy_rd=1.00:0.00 / mixed_ref=1 / me_range=16 / chroma_me=1 / trellis=1 / 8x8dct=1 / cqm=0 / deadzone=21,11 / fast_pskip=0 / chroma_qp_offset=-2 / threads=12 / sliced_threads=0 / nr=0 / decimate=1 / interlaced=0 / bluray_compat=0 / constrained_intra=0 / bframes=3 / b_pyramid=2 / b_adapt=1 / b_bias=0 / direct=1 / weightb=1 / open_gop=0 / weightp=2 / keyint=250 / keyint_min=23 / scenecut=40 / intra_refresh=0 / rc_lookahead=40 / rc=2pass / mbtree=1 / bitrate=8751 / ratetol=1.0 / qcomp=0.60 / qpmin=0 / qpmax=69 / qpstep=4 / cplxblur=20.0 / qblur=0.5 / ip_ratio=1.40 / aq=1:1.00
Language                                 : English
Default                                  : Yes
Forced                                   : No

Audio
ID                                       : 2
Format                                   : AC-3
Format/Info                              : Audio Coding 3
Mode extension                           : CM (complete main)
Format settings, Endianness              : Big
Codec ID                                 : A_AC3
Duration                                 : 1h 7mn
Bit rate mode                            : Constant
Bit rate                                 : 448 Kbps
Channel(s)                               : 2 channels
Channel positions                        : Front: L R
Sampling rate                            : 48.0 KHz
Frame rate                               : 31.250 fps (1536 spf)
Compression mode                         : Lossy
Stream size                              : 218 MiB (5%)
Language                                 : English
Default                                  : Yes
Forced                                   : No





1 個附件 售價 大小 下載 時間

Road.To.St.Tropez.1966.1080p.Bluray.X264-7SinS[btbtt.co].torrent 0 金币 87.90K 421 次 1月前

#1樓
发帖時間:2017-01-08 09:46:27   |   回複數:3
blue23
超凡入聖№
感謝樓主分享
1月前 #2樓
911degrees
一代宗師
非常感謝,謝謝分享
1月前 #3樓
liyouchai
超凡入聖№
謝謝樓主分享資源
1月前 #4樓
遊客組