aoloffline
版主

[2006] [歐美] [劇情] [BD-1080P] [BT下載]朋克之爱 Punk.Love.2006.1080p.BluRay.x264.DTS-FGT 5.45GB

-->

◎譯  名 朋克之愛

◎片  名 Punk Love

◎年  代 2006

◎國  家 意大利/美國

◎類  別 劇情

◎語  言 英語

◎上映日期 2006-03-04

◎IMDb评分  6.0/10 from 368 users

◎IMDb链接  http://www.imdb.com/title/tt0444648/

◎豆瓣评分 7.2/10 from 23 users

◎豆瓣鏈接 https://movie.douban.com/subject/1851893/

◎BT之家整理

◎片  长 USA: 96 分钟/USA: 102 分钟

◎导  演 尼克里昂 Nick Lyon

◎主  演 查德·林德伯格 Chad Lindberg

      Emma Bing

      Max Perlich


◎簡  介


  15歲的女孩薩拉住在一個死氣沈沈的小鎮上,家庭生活也並不美滿,得不到父母的重視。直到她遇見斯派克,終于想要開始另一種新的生活。沈浸在愛河裏的薩拉和斯派克,平日就靠小偷小摸來養活自己和購買吸食的毒品。然而胸懷理想的斯派克並不滿足于現狀,有一天,他成功通過了一支樂隊的面試,以爲黴運生活就要結束了,沒想到事情隨後失去了控制……


Video
ID                                       : 1
Format                                   : AVC
Format/Info                              : Advanced Video Codec
Format profile                           : [email protected]
Format settings, CABAC                   : Yes
Format settings, ReFrames                : 4 frames
Codec ID                                 : V_MPEG4/ISO/AVC
Duration                                 : 1h 21mn
Bit rate                                 : 8 638 Kbps
Width                                    : 1 920 pixels
Height                                   : 1 080 pixels
Display aspect ratio                     : 16:9
Frame rate mode                          : Constant
Frame rate                               : 23.976 (24000/1001) fps
Color space                              : YUV
Chroma subsampling                       : 4:2:0
Bit depth                                : 8 bits
Scan type                                : Progressive
Bits/(Pixel*Frame)                       : 0.174
Stream size                              : 4.91 GiB (90%)
Title                                    : epd-fallenangels.1080p
Writing library                          : x264 core 120 r2146 bcd41db
Encoding settings                        : cabac=1 / ref=4 / deblock=1:0:0 / analyse=0x3:0x113 / me=umh / subme=7 / psy=1 / psy_rd=1.00:0.00 / mixed_ref=1 / me_range=16 / chroma_me=1 / trellis=1 / 8x8dct=1 / cqm=0 / deadzone=21,11 / fast_pskip=0 / chroma_qp_offset=-2 / threads=6 / sliced_threads=0 / nr=0 / decimate=1 / interlaced=0 / bluray_compat=0 / constrained_intra=0 / bframes=3 / b_pyramid=2 / b_adapt=1 / b_bias=0 / direct=1 / weightb=1 / open_gop=0 / weightp=2 / keyint=250 / keyint_min=23 / scenecut=40 / intra_refresh=0 / rc_lookahead=40 / rc=crf / mbtree=1 / crf=20.0 / qcomp=0.60 / qpmin=0 / qpmax=69 / qpstep=4 / ip_ratio=1.40 / aq=1:1.00
Default                                  : Yes
Forced                                   : No

Audio
ID                                       : 2
Format                                   : DTS
Format/Info                              : Digital Theater Systems
Mode                                     : 16
Format settings, Endianness              : Big
Codec ID                                 : A_DTS
Duration                                 : 1h 21mn
Bit rate mode                            : Constant
Bit rate                                 : 768 Kbps
Channel(s)                               : 2 channels
Channel positions                        : Front: L R
Sampling rate                            : 48.0 KHz
Frame rate                               : 93.750 fps (512 spf)
Bit depth                                : 24 bits
Compression mode                         : Lossy
Stream size                              : 447 MiB (8%)
Language                                 : English
Default                                  : No
Forced                                   : No




1 個附件 售價 大小 下載 時間

Punk.Love.2006.1080p.BluRay.x264.DTS-FGT[btbtt.co].torrent 0 金币 55.12K 427 次 11天前

#1樓
发帖時間:2017-01-08 09:43:18   |   回複數:4
blue23
超凡入聖№
感謝樓主分享
11天前 #2樓
911degrees
一代宗師
非常感謝,謝謝分享
11天前 #3樓
liyouchai
一代宗師
謝謝樓主分享資源
11天前 #4樓
tanchoohoon
一派掌門
感謝樓主的無私分享
10天前 #5樓
遊客組