aoloffline
版主

[2010] [歐美] [劇情] [BD-1080P] [BT下載]写给上帝的信/致上帝信 Letters.to.God.2010.1080p.BluRay.X264-AMIABLE 7.94GB

-->

◎譯  名 寫給上帝的信/致上帝信/給天父的信

◎片  名 Letters to God

◎年  代 2010

◎國  家 美國

◎類  別 劇情/家庭

◎語  言 英語

◎上映日期 2010-04-09

◎IMDb评分  6.3/10 from 4,014 users

◎IMDb链接  http://www.imdb.com/title/tt1462054/

◎豆瓣评分 7.9/10 from 1,915 users

◎豆瓣鏈接 https://movie.douban.com/subject/3818585/

◎BT之家整理

◎导  演 David Nixon / Patrick Doughtie

◎主  演 Jeffrey Johnson

      Tanner Maguire

      Michael Bolten


◎簡  介


  年仅八岁的泰勒(坦纳·马奎尔 Tanner Maguire 饰)不幸患上了癌症,而幸运的是,他对上帝虔诚和真挚的信仰让他幼小的心灵得到了救赎。泰勒最大的乐趣就是给上帝写信,一封封笔迹幼稚的信里透露出的是对生命的热爱。这些热情洋溢的信统统的被传递到了布拉迪(杰弗里·约翰逊 Jeffrey Johnson 饰)的手上,身为一名邮递员,他知道泰勒的信将永远无法寄出。

  最近,布拉迪的人生走入了死胡同,周圍的一切都讓他感到無能爲力。沒想到,在讀了泰勒寫給上帝的信後,布拉迪卻神奇的獲得了自信和感動。布拉迪找到了泰勒的家人並和他們成爲了朋友,他決心要幫助泰勒實現他的夢想,與此同時,布拉迪也找到了屬于自己的人生信仰。



Video
ID                                       : 1
Format                                   : AVC
Format/Info                              : Advanced Video Codec
Format profile                           : [email protected]
Format settings, CABAC                   : Yes
Format settings, ReFrames                : 4 frames
Codec ID                                 : V_MPEG4/ISO/AVC
Duration                                 : 1h 53mn
Bit rate                                 : 8 496 Kbps
Width                                    : 1 920 pixels
Height                                   : 1 080 pixels
Display aspect ratio                     : 16:9
Frame rate mode                          : Constant
Frame rate                               : 23.976 (24000/1001) fps
Color space                              : YUV
Chroma subsampling                       : 4:2:0
Bit depth                                : 8 bits
Scan type                                : Progressive
Bits/(Pixel*Frame)                       : 0.171
Stream size                              : 6.59 GiB (83%)
Writing library                          : x264 core 113 r1884 7313bb5
Encoding settings                        : cabac=1 / ref=4 / deblock=1:0:0 / analyse=0x3:0x113 / me=umh / subme=8 / psy=1 / psy_rd=1.00:0.00 / mixed_ref=1 / me_range=16 / chroma_me=1 / trellis=1 / 8x8dct=1 / cqm=0 / deadzone=21,11 / fast_pskip=0 / chroma_qp_offset=-2 / threads=12 / sliced_threads=0 / nr=0 / decimate=1 / interlaced=0 / constrained_intra=0 / bframes=3 / b_pyramid=2 / b_adapt=2 / b_bias=0 / direct=3 / weightb=1 / open_gop=0 / weightp=2 / keyint=240 / keyint_min=24 / scenecut=40 / intra_refresh=0 / rc_lookahead=50 / rc=2pass / mbtree=1 / bitrate=8496 / ratetol=1.0 / qcomp=0.60 / qpmin=0 / qpmax=69 / qpstep=4 / cplxblur=20.0 / qblur=0.5 / ip_ratio=1.40 / aq=1:1.00
Language                                 : English
Default                                  : Yes
Forced                                   : No

Audio
ID                                       : 2
Format                                   : DTS
Format/Info                              : Digital Theater Systems
Mode                                     : 16
Format settings, Endianness              : Big
Codec ID                                 : A_DTS
Duration                                 : 1h 53mn
Bit rate mode                            : Constant
Bit rate                                 : 1 509 Kbps
Channel(s)                               : 6 channels
Channel positions                        : Front: L C R, Side: L R, LFE
Sampling rate                            : 48.0 KHz
Frame rate                               : 93.750 fps (512 spf)
Bit depth                                : 24 bits
Compression mode                         : Lossy
Stream size                              : 1.20 GiB (15%)
Language                                 : English
Default                                  : Yes
Forced                                   : No

Text #1
ID                                       : 3
Format                                   : UTF-8
Codec ID                                 : S_TEXT/UTF8
Codec ID/Info                            : UTF-8 Plain Text
Language                                 : English
Default                                  : No
Forced                                   : No

Text #2
ID                                       : 4
Format                                   : UTF-8
Codec ID                                 : S_TEXT/UTF8
Codec ID/Info                            : UTF-8 Plain Text
Language                                 : Spanish
Default                                  : No
Forced                                   : No

Menu
00:00:00.000                             : en:00:00:00.000
00:08:40.812                             : en:00:08:40.812
00:17:06.150                             : en:00:17:06.150
00:25:51.800                             : en:00:25:51.800
00:32:26.987                             : en:00:32:26.987
00:39:36.666                             : en:00:39:36.666
00:50:09.215                             : en:00:50:09.215
01:02:38.171                             : en:01:02:38.171
01:11:52.058                             : en:01:11:52.058
01:22:31.780                             : en:01:22:31.780
01:33:58.341                             : en:01:33:58.341
01:45:57.851                             : en:01:45:57.851





1 個附件 售價 大小 下載 時間

Letters.to.God.2010.1080p.BluRay.X264-AMIABLE[btbtt.co].torrent 0 金币 80.02K 567 次 14天前

#1樓
发帖時間:2017-01-08 09:36:11   |   回複數:4
blue23
超凡入聖№
感謝樓主分享
14天前 #2樓
911degrees
一代宗師
非常感謝,謝謝分享
14天前 #3樓
pwf2000
江湖小蝦
这電影挺感人的
14天前 #4樓
liyouchai
一代宗師
謝謝樓主分享資源
14天前 #5樓
遊客組