aoloffline
版主

[更 早] [歐美] [劇情] [BD-1080P] [BT下載]帝国 Empire.State.1988.1080p.BluRay.x264-7SinS 6.55GB

-->

◎譯  名 帝國

◎片  名 Empire State

◎國  家 英國

◎語  言 英語

◎上映日期 1987

◎IMDb评分  5.0/10 from 143 users

◎IMDb链接  http://www.imdb.com/title/tt0092964/

◎BT之家整理

◎导  演 Ron Peck


◎簡  介


  None



Video
ID                                       : 1
Format                                   : AVC
Format/Info                              : Advanced Video Codec
Format profile                           : [email protected]
Format settings, CABAC                   : Yes
Format settings, ReFrames                : 4 frames
Codec ID                                 : V_MPEG4/ISO/AVC
Duration                                 : 1h 43mn
Bit rate                                 : 8 605 Kbps
Width                                    : 1 920 pixels
Height                                   : 1 080 pixels
Display aspect ratio                     : 16:9
Frame rate mode                          : Constant
Frame rate                               : 24.000 fps
Color space                              : YUV
Chroma subsampling                       : 4:2:0
Bit depth                                : 8 bits
Scan type                                : Progressive
Bits/(Pixel*Frame)                       : 0.173
Stream size                              : 6.10 GiB (93%)
Writing library                          : x264 core 114 r1913 5fd3dce
Encoding settings                        : cabac=1 / ref=4 / deblock=1:0:0 / analyse=0x3:0x133 / me=umh / subme=7 / psy=1 / psy_rd=1.00:0.00 / mixed_ref=1 / me_range=16 / chroma_me=1 / trellis=1 / 8x8dct=1 / cqm=0 / deadzone=21,11 / fast_pskip=0 / chroma_qp_offset=-2 / threads=12 / sliced_threads=0 / nr=0 / decimate=1 / interlaced=0 / constrained_intra=0 / bframes=3 / b_pyramid=2 / b_adapt=1 / b_bias=0 / direct=1 / weightb=1 / open_gop=0 / weightp=2 / keyint=250 / keyint_min=24 / scenecut=40 / intra_refresh=0 / rc_lookahead=40 / rc=2pass / mbtree=1 / bitrate=8605 / ratetol=1.0 / qcomp=0.60 / qpmin=0 / qpmax=69 / qpstep=4 / cplxblur=20.0 / qblur=0.5 / ip_ratio=1.40 / aq=1:1.00
Language                                 : English
Default                                  : No
Forced                                   : No

Audio
ID                                       : 2
Format                                   : AC-3
Format/Info                              : Audio Coding 3
Mode extension                           : CM (complete main)
Format settings, Endianness              : Big
Codec ID                                 : A_AC3
Duration                                 : 1h 43mn
Bit rate mode                            : Constant
Bit rate                                 : 448 Kbps
Channel(s)                               : 2 channels
Channel positions                        : Front: L R
Sampling rate                            : 48.0 KHz
Frame rate                               : 31.250 fps (1536 spf)
Compression mode                         : Lossy
Stream size                              : 332 MiB (5%)
Default                                  : Yes
Forced                                   : No





1 個附件 售價 大小 下載 時間

Empire.State.1988.1080p.BluRay.x264-7SinS[btbtt.co].torrent 0 金币 66.08K 623 次 1月前

#1樓
发帖時間:2017-01-08 09:25:09   |   回複數:4
blue23
超凡入聖№
感謝樓主分享
1月前 #2樓
911degrees
一代宗師
非常感謝,謝謝分享
1月前 #3樓
liyouchai
超凡入聖№
謝謝樓主分享資源
1月前 #4樓
tanchoohoon
一派掌門
感謝樓主的無私分享
1月前 #5樓
遊客組