aoloffline
版主

[更 早] [歐美] [喜劇] [BD-1080P] [BT下載]奇爱博士/密码114 Dr.Strangelove.1964.1080p.BluRay.x264-PURE 6.14GB

-->

◎譯  名 奇愛博士/密碼114(港)/奇愛博士或者我如何學會停止恐懼並愛上炸彈/我如何學會停止恐懼並愛上炸彈

◎片  名 Dr. Strangelove or: How I Learned to Stop Worrying and Love the Bomb

◎年  代 1964

◎國  家 美國/英國

◎類  別 喜劇/劇情

◎語  言 英語/俄語

◎上映日期 1964-01-29(美國)

◎IMDb评分  8.5/10 from 353,782 users

◎IMDb链接  http://www.imdb.com/title/tt0057012/

◎豆瓣评分 8.7/10 from 35,722 users

◎豆瓣鏈接 https://movie.douban.com/subject/1322848/

◎BT之家整理

◎片  长 95 分钟

◎导  演 斯坦利·库布里克 Stanley Kubrick

◎主  演 彼得·塞勒斯 Peter Sellers

      乔治·C·斯科特 George C. Scott

      斯特林·海登 Sterling Hayden

      詹姆斯·厄尔·琼斯 James Earl Jones

      格伦·贝克 Glenn Beck


◎簡  介


  美国空军将领杰克瑞(斯特林·海登 Sterling Hayden 饰)怀疑苏共的“腐朽思想”正在毒害“正直善良”的美国人民,他于是下令携带核弹头的飞行部队前往苏联,对敌人进行毁灭性的核打击。苏联方面得知此事,立即致电美国总统墨尔金马夫雷(彼得·塞勒斯 Peter Sellers 饰),并威胁如若领土遭到攻击,苏联将不惜一切代价按下“世界末日装置”。该装置的威力足以摧毁地球上所有的生命。

  一場有關全人類乃至整個地球命運的戰爭就這樣悄然且荒誕地拉開了序幕……

  影片根据彼得乔治1958年的小说《红色警戒(Red Alert)》改编而成,与《2001漫游太空》、《发条橙》并称为“未来三部曲”。


◎獲獎情況


  第37届奥斯卡金像奖  (1965)

  最佳影片(提名) 斯坦利·库布里克

  最佳导演(提名) 斯坦利·库布里克

  最佳男主角(提名) 彼得·塞勒斯

  最佳改编剧本(提名) 彼得·乔治 / 斯坦利·库布里克 / 特里·索泽恩


Video
ID                                       : 1
Format                                   : AVC
Format/Info                              : Advanced Video Codec
Format profile                           : [email protected]
Format settings, CABAC                   : Yes
Format settings, ReFrames                : 3 frames
Codec ID                                 : V_MPEG4/ISO/AVC
Duration                                 : 1h 34mn
Bit rate                                 : 8 630 Kbps
Width                                    : 1 920 pixels
Height                                   : 1 072 pixels
Display aspect ratio                     : 16:9
Frame rate mode                          : Constant
Frame rate                               : 23.976 (24000/1001) fps
Color space                              : YUV
Chroma subsampling                       : 4:2:0
Bit depth                                : 8 bits
Scan type                                : Progressive
Bits/(Pixel*Frame)                       : 0.175
Stream size                              : 5.59 GiB (91%)
Writing library                          : x264 core 125 r2208 d9d2288
Encoding settings                        : cabac=1 / ref=4 / deblock=1:0:0 / analyse=0x3:0x3 / me=umh / subme=7 / psy=1 / psy_rd=1.00:0.15 / mixed_ref=0 / me_range=16 / chroma_me=1 / trellis=1 / 8x8dct=1 / cqm=0 / deadzone=21,11 / fast_pskip=0 / chroma_qp_offset=-3 / threads=6 / lookahead_threads=1 / sliced_threads=0 / slices=4 / nr=0 / decimate=1 / interlaced=0 / bluray_compat=0 / constrained_intra=0 / bframes=3 / b_pyramid=1 / b_adapt=1 / b_bias=0 / direct=1 / weightb=1 / open_gop=0 / weightp=0 / keyint=24 / keyint_min=13 / scenecut=40 / intra_refresh=0 / rc=2pass / mbtree=0 / bitrate=8630 / ratetol=1.0 / qcomp=0.60 / qpmin=0 / qpmax=69 / qpstep=4 / cplxblur=20.0 / qblur=0.5 / ip_ratio=1.40 / pb_ratio=1.30 / aq=1:1.00
Language                                 : English
Default                                  : Yes
Forced                                   : No

Audio
ID                                       : 2
Format                                   : AC-3
Format/Info                              : Audio Coding 3
Mode extension                           : CM (complete main)
Format settings, Endianness              : Big
Codec ID                                 : A_AC3
Duration                                 : 1h 34mn
Bit rate mode                            : Constant
Bit rate                                 : 640 Kbps
Channel(s)                               : 6 channels
Channel positions                        : Front: L C R, Side: L R, LFE
Sampling rate                            : 48.0 KHz
Frame rate                               : 31.250 fps (1536 spf)
Compression mode                         : Lossy
Stream size                              : 434 MiB (7%)
Language                                 : English
Default                                  : No
Forced                                   : No

Text
ID                                       : 3
Format                                   : UTF-8
Codec ID                                 : S_TEXT/UTF8
Codec ID/Info                            : UTF-8 Plain Text
Language                                 : English
Default                                  : Yes
Forced                                   : No





1 個附件 售價 大小 下載 時間

Dr.Strangelove.Or.How.I.Learned.To.Stop.Worrying.And.Love.The.Bomb.1964.1080p.BluRay.x264-PURE[btbtt.co].torrent 0 金币 62.12K 1125 次 1月前

#1樓
发帖時間:2017-01-08 09:22:08   |   回複數:3
blue23
超凡入聖№
感謝樓主分享
1月前 #2樓
911degrees
一代宗師
非常感謝,謝謝分享
1月前 #3樓
liyouchai
超凡入聖№
謝謝樓主分享資源
1月前 #4樓
遊客組