果果粒可可
一代宗師

[2016] [歐美] [驚悚] [HDTV/HDrip] [BT下載]天赐之女 The.Girl.With.All.The.Gifts.2016.720p.HDRip.X264.AC3-EVO 3.2GB

-->

◎譯  名 天賜之女

◎片  名 The Girl with All the Gifts

◎年  代 2016

◎國  家 英國/美國

◎類  別 劇情/驚悚/恐怖

◎語  言 英語

◎上映日期 2016-09-23(英國)

◎IMDb评分  7.1/10 from 4,525 users

◎IMDb链接  http://www.imdb.com/title/tt4547056/

◎豆瓣评分 5.8/10 from 41 users

◎豆瓣鏈接 https://movie.douban.com/subject/26704623/

◎BT之家整理  

◎片  長 110分鍾

◎导  演 柯尔姆·麦卡锡 Colm McCarthy

◎主  演 杰玛·阿特登 Gemma Arterton

      格伦·克洛斯 Glenn Close

      帕迪·康斯戴恩 Paddy Considine

      多米尼克·蒂珀 Dominique Tipper

      安娜玛丽亚·玛琳卡 Anamaria Marinca

      飞塞友·阿金那德 Fisayo Akinade

      森尼娅·纳阿 Sennia Nanua


◎簡  介


  《天赐之女》是一部電影,片长110分钟。根据M·R·凯里的爱伦坡奖获奖小说改编的僵尸启示录電影,背景设定在反乌托邦未来,讲述一位科学家,一位老师和两名士兵利用一个第二代僵尸女孩,研究治疗僵尸的方法,以拯救人类。


◎獲獎情況


  第19届英国独立電影奖  (2016)

  最佳女配角(提名) 杰玛·阿特登

  最佳新演员(提名) 森尼娅·纳阿

  技術成就獎(提名)

  制作成就獎



Complete name : The.Girl.With.All.The.Gifts.2016.720p.HDRip.X264.AC3-EVO.mkv
Format : Matroska
Format version : Version 4 / Version 2
File size : 3.20 GiB
Duration : 1 h 46 min
Overall bit rate : 4 312 kb/s
Movie name : EVO
Encoded date : UTC 2017-01-05 21:25:27
Writing application : mkvmerge v6.7.0 (\'Back to the Ground\') 64bit built on Jan 8 2014 15:10:52
Writing library : libebml v1.3.0 + libmatroska v1.4.1

Video
ID : 1
Format : AVC
Format/Info : Advanced Video Codec
Format profile : [email protected]
Format settings, CABAC : Yes
Format settings, ReFrames : 4 frames
Codec ID : V_MPEG4/ISO/AVC
Duration : 1 h 46 min
Bit rate : 3 842 kb/s
Width : 1 280 pixels
Height : 640 pixels
Display aspect ratio : 2.000
Frame rate mode : Constant
Frame rate : 25.000 FPS
Color space : YUV
Chroma subsampling : 4:2:0
Bit depth : 8 bits
Scan type : Progressive
Bits/(Pixel*Frame) : 0.188
Stream size : 2.85 GiB (89%)
Default : Yes
Forced : No

Audio
ID : 2
Format : AC-3
Format/Info : Audio Coding 3
Mode extension : CM (complete main)
Format settings, Endianness : Big
Codec ID : A_AC3
Duration : 1 h 46 min
Bit rate mode : Constant
Bit rate : 384 kb/s
Channel(s) : 2 channels
Channel positions : Front: L R
Sampling rate : 48.0 kHz
Frame rate : 31.250 FPS (1536 spf)
Compression mode : Lossy
Delay relative to video : 200 ms
Stream size : 292 MiB (9%)
Language : English
Default : No
Forced : No

Screens.png

Click Image To View Full Size

ePN7s.th.jpg
Click To View Screenshot
Click To View Screenshot
Click To View Screenshot


1 個附件 售價 大小 下載 時間

The.Girl.With.All.The.Gifts.2016.720p.HDRip.X264.AC3-EVO[btbtt.co].torrent 0 金币 4.75K 1477 次 1月前

#1樓
发帖時間:2017-01-07 15:35:50   |   回複數:2
liyouchai
超凡入聖№
謝謝樓主分享資源
1月前 #2樓
blue23
超凡入聖№
感謝樓主分享
1月前 #3樓
遊客組