小Q呆
版主

[2008] [歐美] [動畫] [BD-3D] [BT下載]闪电狗/雷霆战狗 Bolt.2008.3D.PLDUB.DUAL.1080p.BluRay.x264-FLAME 6.6GB

-->

◎譯  名 閃電狗/雷霆戰狗/超級零零狗3D/明星狗

◎片  名 Bolt

◎年  代 2008

◎國  家 美國

◎類  別 動畫/冒險/喜劇/家庭

◎語  言 英語

◎上映日期 2008-11-21(美國)

◎豆瓣评分 7.3/10 from 71,405 users

◎豆瓣鏈接 https://movie.douban.com/subject/1793912/

◎片  长 96 分钟

◎导  演 拜伦·霍华德 Byron Howard / Chris Williams

◎主  演 约翰·特拉沃尔塔 John Travolta

      麦莉·赛勒斯 Miley Cyrus

      Susie Essman

      马克·沃尔顿 Mark Walton

      马尔科姆·麦克道威尔 Malcolm McDowell

      詹姆斯·里普顿 James Lipton


◎簡  介


  波特(約翰卓佛塔配音)絕非一只普通的狗。在被女孩佩妮(麥莉賽勒斯配音)帶回家後,波特被她的父親改造成一只“超級閃電狗”。它有強化的骨骼、風馳電掣的速度、無窮的力量。它要和佩妮一起去拯救被“綠眼人”綁架的父親。波特靠著它的力量,戰勝了無數強敵。

  當然,這一切只是在大屏幕上。實際上,波特與佩妮只不過是一起演出一部戲劇。波特並沒有什麽超能力,但它堅信自己的力量是真實的。一次拍攝後,混淆了真實與戲劇的波特沖出牢籠,要去大街上拯救佩妮,而它無法預知到,它將面臨一個沒有超能力的真實又危險的世界。


◎獲獎情況


  第81届奥斯卡金像奖  (2009)

  最佳動畫長片(提名) 拜伦·霍华德 / 克里斯·威廉姆斯


  第66届金球奖  (2009)

  電影类 最佳动画长片(提名)

  電影类 最佳原创歌曲(提名) 麦莉·赛勒斯 / 杰弗里·斯蒂尔


  第36届动画安妮奖  (2009)

  最佳動畫長片(提名)

  最佳配音(提名) 马克·沃尔顿

  最佳分镜(提名) Joseph Mateo

  最佳艺术指导(提名) Paul A. Felix

  最佳动画效果(提名) Kevin Lee


Complete name : flame-bolt.2008.3d.pldub.dual.1080p.bluray.x264.mkv
Format : Matroska
Format version : Version 4 / Version 2
File size : 6.56 GiB
Duration : 1 h 36 min
Overall bit rate : 9 740 kb/s
Encoded date : UTC 2017-01-06 19:43:57
Writing application : mkvmerge v9.7.1 (\'Pandemonium\') 64bit
Writing library : libebml v1.3.4 + libmatroska v1.4.5

Video
ID : 1
Format : AVC
Format/Info : Advanced Video Codec
Format profile : High@L4.1
Format settings, CABAC : Yes
Format settings, ReFrames : 4 frames
Codec ID : V_MPEG4/ISO/AVC
Duration : 1 h 36 min
Bit rate : 7 590 kb/s
Width : 1 920 pixels
Height : 1 040 pixels
Display aspect ratio : 1.85:1
Frame rate mode : Constant
Frame rate : 23.976 (24000/1001) FPS
Color space : YUV
Chroma subsampling : 4:2:0
Bit depth : 8 bits
Scan type : Progressive
Bits/(Pixel*Frame) : 0.159
Stream size : 5.11 GiB (78%)
Writing library : x264 core 148 r2744 b97ae06
Encoding settings : cabac=1 / ref=4 / deblock=1:2:1 / analyse=0x3:0x133 / me=umh / subme=9 / psy=1 / psy_rd=0.50:0.00 / mixed_ref=1 / me_range=16 / chroma_me=1 / trellis=2 / 8x8dct=1 / cqm=0 / deadzone=21,11 / fast_pskip=0 / chroma_qp_offset=-2 / threads=12 / lookahead_threads=1 / sliced_threads=0 / nr=0 / decimate=1 / interlaced=0 / bluray_compat=0 / constrained_intra=0 / bframes=3 / b_pyramid=2 / b_adapt=2 / b_bias=0 / direct=3 / weightb=1 / open_gop=0 / weightp=2 / keyint=250 / keyint_min=23 / scenecut=40 / intra_refresh=0 / rc_lookahead=60 / rc=2pass / mbtree=1 / bitrate=7590 / ratetol=1.0 / qcomp=0.60 / qpmin=10 / qpmax=69 / qpstep=4 / cplxblur=20.0 / qblur=0.5 / ip_ratio=1.40 / aq=1:0.70
Language : English
Default : Yes
Forced : No

Audio #1
ID : 2
Format : AC-3
Format/Info : Audio Coding 3
Mode extension : CM (complete main)
Format settings, Endianness : Big
Codec ID : A_AC3
Duration : 1 h 36 min
Bit rate mode : Constant
Bit rate : 640 kb/s
Channel(s) : 6 channels
Channel positions : Front: L C R, Side: L R, LFE
Sampling rate : 48.0 kHz
Frame rate : 31.250 FPS (1536 spf)
Compression mode : Lossy
Stream size : 441 MiB (7%)
Title : Polish AC3 640 bkps
Language : Polish
Default : No
Forced : No

Audio #2
ID : 3
Format : DTS
Format/Info : Digital Theater Systems
Format profile : ES Matrix / Core
Mode : 16
Format settings, Endianness : Big
Codec ID : A_DTS
Duration : 1 h 36 min
Bit rate mode : Constant
Bit rate : 1 509 kb/s
Channel(s) : 7 channels / 6 channels
Channel positions : Front: L C R, Side: L R, Back: C, LFE / Front: L C R, Side: L R, LFE
Sampling rate : 48.0 kHz
Frame rate : 93.750 FPS (512 spf)
Bit depth : 24 bits
Compression mode : Lossy
Stream size : 1.02 GiB (15%)
Title : English DTS 1509 kbps
Language : English
Default : No
Forced : No

Text #1
ID : 4
Format : UTF-8
Codec ID : S_TEXT/UTF8
Codec ID/Info : UTF-8 Plain Text
Duration : 1 h 15 min
Bit rate : 0 b/s
Count of elements : 10
Stream size : 227 Bytes (0%)
Title : Forced
Language : Polish
Default : No
Forced : No

Text #2
ID : 5
Format : UTF-8
Codec ID : S_TEXT/UTF8
Codec ID/Info : UTF-8 Plain Text
Duration : 1 h 31 min
Bit rate : 54 b/s
Count of elements : 1123
Stream size : 36.2 KiB (0%)
Language : Polish
Default : No
Forced : No

Text #3
ID : 6
Format : UTF-8
Codec ID : S_TEXT/UTF8
Codec ID/Info : UTF-8 Plain Text
Duration : 1 h 31 min
Bit rate : 57 b/s
Count of elements : 1110
Stream size : 38.5 KiB (0%)
Language : English
Default : No
Forced : No

Menu
00:00:00.000 : :
00:02:31.651 : :
00:11:00.658 : :
00:13:47.201 : :
00:19:19.950 : :
00:24:18.873 : :
00:27:14.382 : :
00:29:48.702 : :
00:35:25.831 : :
00:42:09.568 : :
00:51:41.972 : :
01:01:58.338 : :
01:08:16.007 : :
01:13:02.711 : :
01:18:53.060 : :
01:29:36.828 : :
01:36:21.608 : :

Screens.png

Click Image To View Full Size

e0We5.th.jpg
Click To View Screenshot
Click To View Screenshot
Click To View Screenshot


1 個附件 售價 大小 下載 時間

Bolt.2008.3D.PLDUB.DUAL.1080p.BluRay.x264-FLAME[btbtt.co].torrent 0 金币 9.32K 1138 次 1月前

#1樓
发帖時間:2017-01-07 15:16:22   |   回複數:2
liyouchai
一代宗師
謝謝樓主分享資源
1月前 #2樓
blue23
超凡入聖№
感謝樓主分享
1月前 #3樓
遊客組