小Q呆
版主

[2016] [歐美] [恐怖] [BD-720P] [BT下載]陌生人2 The.Strangers.2016.FRENCH.720p.BluRay.x264-LOST 6.6GB

-->

◎譯  名 陌生人2

◎片  名 The Strangers 2

◎年  代 2016

◎國  家 美國

◎類  別 恐怖

◎語  言 英語

◎上映日期 2016-12-02(美國)

◎BT之家整理  

◎导  演 Marcel Langenegger


◎簡  介


  The plot follows a family of four who have been evicted from their home due to the economy, and are paid a visit by the same three strangers from the first film. It is not known whether the sequel will follow a theatrical or a straight-to-DVD release. Liv Tyler will return as Kristen McKay while the original three masked villains are also set to return, however, in an interview Tyler had announced that she would only have a minor role.


Complete name : the.strangers.2016.french.720p.bluray.x264-lost.mkv
Format : Matroska
Format version : Version 2
File size : 6.55 GiB
Duration : 2 h 36 min
Overall bit rate : 6 000 kb/s
Writing application : mkvmerge v6.6.0 (\'The Edge Of The In Between\') built on Dec 1 2013 17:55:00
Writing library : libebml v1.3.0 + libmatroska v1.4.1

Video
ID : 1
Format : AVC
Format/Info : Advanced Video Codec
Format profile : [email protected]
Format settings, CABAC : Yes
Format settings, ReFrames : 5 frames
Codec ID : V_MPEG4/ISO/AVC
Duration : 2 h 36 min
Bit rate : 4 490 kb/s
Width : 1 280 pixels
Height : 536 pixels
Display aspect ratio : 2.40:1
Frame rate mode : Constant
Frame rate : 23.976 (24000/1001) FPS
Color space : YUV
Chroma subsampling : 4:2:0
Bit depth : 8 bits
Scan type : Progressive
Bits/(Pixel*Frame) : 0.273
Stream size : 4.77 GiB (73%)
Writing library : x264 core 148 r2744 b97ae06
Encoding settings : cabac=1 / ref=5 / deblock=1:0:0 / analyse=0x3:0x113 / me=umh / subme=8 / psy=1 / psy_rd=1.00:0.00 / mixed_ref=1 / me_range=16 / chroma_me=1 / trellis=1 / 8x8dct=1 / cqm=0 / deadzone=21,11 / fast_pskip=1 / chroma_qp_offset=-2 / threads=17 / lookahead_threads=2 / sliced_threads=0 / nr=0 / decimate=1 / interlaced=0 / bluray_compat=0 / constrained_intra=0 / bframes=3 / b_pyramid=2 / b_adapt=2 / b_bias=0 / direct=3 / weightb=1 / open_gop=0 / weightp=2 / keyint=240 / keyint_min=24 / scenecut=40 / intra_refresh=0 / rc_lookahead=50 / rc=2pass / mbtree=1 / bitrate=4490 / ratetol=1.0 / qcomp=0.60 / qpmin=0 / qpmax=69 / qpstep=4 / cplxblur=20.0 / qblur=0.5 / ip_ratio=1.40 / aq=1:1.00
Language : English
Default : Yes
Forced : No

Audio
ID : 2
Format : DTS
Format/Info : Digital Theater Systems
Mode : 16
Format settings, Endianness : Big
Codec ID : A_DTS
Duration : 2 h 36 min
Bit rate mode : Constant
Bit rate : 1 509 kb/s
Channel(s) : 6 channels
Channel positions : Front: L C R, Side: L R, LFE
Sampling rate : 48.0 kHz
Frame rate : 93.750 FPS (512 spf)
Bit depth : 24 bits
Compression mode : Lossy
Stream size : 1.65 GiB (25%)
Title : French DTS 1509kbps
Language : French
Default : Yes
Forced : No

Text
ID : 3
Format : UTF-8
Codec ID : S_TEXT/UTF8
Codec ID/Info : UTF-8 Plain Text
Title : Forced
Language : French
Default : Yes
Forced : Yes

Menu
00:00:00.000 : en:00:00:00.000
00:09:25.190 : en:00:09:25.190
00:23:18.731 : en:00:23:18.731
00:35:23.830 : en:00:35:23.830
00:47:45.529 : en:00:47:45.529
01:00:33.380 : en:01:00:33.380
01:12:36.602 : en:01:12:36.602
01:22:30.404 : en:01:22:30.404
01:29:46.631 : en:01:29:46.631
01:38:55.596 : en:01:38:55.596
01:52:27.741 : en:01:52:27.741
01:59:52.143 : en:01:59:52.143
02:07:18.506 : en:02:07:18.506
02:17:21.692 : en:02:17:21.692
02:25:58.875 : en:02:25:58.875
02:32:34.937 : en:02:32:34.937

Screens.png

Click Image To View Full Size

eu151.th.jpg
Click To View Screenshot
Click To View Screenshot
Click To View Screenshot



1 個附件 售價 大小 下載 時間

The.Strangers.2016.FRENCH.720p.BluRay.x264-LOST[btbtt.co].torrent 0 金币 9.54K 660 次 4月前

#1樓
請幫忙分享到: | Twitter | Google+ | 微博 | 更多… 发帖時間:2017-01-07 15:00:07   |   回複數:3
liyouchai
超凡入聖№
謝謝樓主分享資源
4月前 #2樓
blue23
超凡入聖№
感謝樓主分享
4月前 #3樓
albb2188
一派掌門
感謝樓主提供分享影片資源!
4月前 #4樓
遊客組