aoloffline
版主

[2015] [歐美] [紀錄] [WEB-1080P] [BT下載]The.Big.Lie.American.Addict.2.2016.1080p.WEBRip.DD2.0.x264-monkee 5.42GB

-->

◎譯  名 

◎片  名 American Addict 2: The Big Lie

◎年  代 2015

◎國  家 美國

◎類  別 紀錄片

◎語  言 英語

◎上映日期 1 June 2015

◎IMDb评分  9.1/10 from 16 users

◎IMDb链接  http://www.imdb.com/title/tt4219652/

◎BT之家整理  

◎片  长 96 min

◎导  演 Sasha Knezev

◎主  演 Jonathan Davis

      Dennis Kucinich

      罗恩·保罗 Ron Paul

      马修·派瑞 Matthew Perry


◎簡  介


  American Addict 2 digs deeper into the world of corruption, politics and pharmaceutical greed. Matthew Perry, Jonathan Davis, Ron Paul and Dennis Kucinich contribute to this eye opening examination of America's deadly dependency with prescription medication.



Video
ID                                       : 1
Format                                   : AVC
Format/Info                              : Advanced Video Codec
Format profile                           : [email protected]
Format settings, CABAC                   : Yes
Format settings, ReFrames                : 4 frames
Codec ID                                 : V_MPEG4/ISO/AVC
Duration                                 : 1h 33mn
Bit rate mode                            : Variable
Bit rate                                 : 8 071 Kbps
Maximum bit rate                         : 15.0 Mbps
Width                                    : 1 920 pixels
Height                                   : 1 080 pixels
Display aspect ratio                     : 16:9
Frame rate mode                          : Constant
Frame rate                               : 23.976 (24000/1001) fps
Color space                              : YUV
Chroma subsampling                       : 4:2:0
Bit depth                                : 8 bits
Scan type                                : Progressive
Bits/(Pixel*Frame)                       : 0.162
Stream size                              : 5.27 GiB (97%)
Writing library                          : x264 core 148 r2623 d5b2374
Encoding settings                        : cabac=1 / ref=4 / deblock=1:-1:-1 / analyse=0x3:0x133 / me=umh / subme=9 / psy=1 / psy_rd=1.00:0.15 / mixed_ref=1 / me_range=24 / chroma_me=1 / trellis=2 / 8x8dct=1 / cqm=0 / deadzone=21,11 / fast_pskip=1 / chroma_qp_offset=-3 / threads=34 / lookahead_threads=5 / sliced_threads=0 / nr=150 / decimate=1 / interlaced=0 / bluray_compat=0 / constrained_intra=0 / bframes=8 / b_pyramid=2 / b_adapt=2 / b_bias=0 / direct=3 / weightb=1 / open_gop=0 / weightp=2 / keyint=120 / keyint_min=61 / scenecut=0 / intra_refresh=0 / rc_lookahead=120 / rc=crf / mbtree=1 / crf=18.0 / qcomp=0.60 / qpmin=0 / qpmax=69 / qpstep=4 / vbv_maxrate=15000 / vbv_bufsize=31250 / crf_max=0.0 / nal_hrd=vbr / filler=0 / ip_ratio=1.40 / aq=3:1.00
Default                                  : Yes
Forced                                   : No
Color range                              : Limited
Color primaries                          : BT.709
Transfer characteristics                 : BT.709
Matrix coefficients                      : BT.709

Audio
ID                                       : 2
Format                                   : E-AC-3
Format/Info                              : Audio Coding 3
Format settings, Endianness              : Big
Codec ID                                 : A_EAC3
Duration                                 : 1h 33mn
Bit rate mode                            : Constant
Bit rate                                 : 224 Kbps
Channel(s)                               : 2 channels
Channel positions                        : Front: L R
Sampling rate                            : 48.0 KHz
Frame rate                               : 187.500 fps (256 spf)
Compression mode                         : Lossy
Stream size                              : 150 MiB (3%)
Language                                 : English
Default                                  : Yes
Forced                                   : No

Text
ID                                       : 3
Format                                   : UTF-8
Codec ID                                 : S_TEXT/UTF8
Codec ID/Info                            : UTF-8 Plain Text
Duration                                 : 1h 32mn
Bit rate                                 : 105 bps
Count of elements                        : 1884
Stream size                              : 71.5 KiB (0%)
Language                                 : English
Default                                  : No
Forced                                   : No





1 個附件 售價 大小 下載 時間

The.Big.Lie.American.Addict.2.2016.1080p.WEBRip.DD2.0.x264-monkee[btbtt.co].torrent 0 金币 54.84K 336 次 15天前

#1樓
发帖時間:2017-01-07 09:54:37   |   回複數:3
blue23
超凡入聖№
感謝樓主分享
15天前 #2樓
911degrees
一代宗師
非常感謝,謝謝分享
15天前 #3樓
liyouchai
一代宗師
謝謝樓主分享資源
15天前 #4樓
遊客組